<?xml version="1.0" standalone="no"?>
<!DOCTYPE svg PUBLIC "-//W3C//DTD SVG 1.1//EN" "http://www.w3.org/Graphics/SVG/1.1/DTD/svg11.dtd" >
<svg xmlns="http://www.w3.org/2000/svg" xmlns:xlink="http://www.w3.org/1999/xlink" version="1.1">
<metadata>
Created by FontForge 20150102 at Mon Jan  5 14:05:35 2015
 By uniteet7
Copyright 2012 Monotype Imaging Inc. All rights reserved.
</metadata>
<defs>
<font id="NetworkOTLight" horiz-adv-x="600" >
  <font-face 
    font-family="NetworkOTLight"
    font-weight="300"
    font-stretch="normal"
    units-per-em="1000"
    panose-1="2 11 3 0 3 0 0 2 0 3"
    ascent="770"
    descent="-230"
    x-height="533"
    cap-height="712"
    bbox="-120 -193 1050 938"
    underline-thickness="50"
    underline-position="-50"
    unicode-range="U+0020-FB02"
  />
<missing-glyph horiz-adv-x="500" 
d="M0 0v700h500v-700h-500zM250 395l170 255h-340zM280 350l170 -255v510zM80 50h340l-170 255zM50 605v-510l170 255z" />
    <glyph glyph-name="fi" unicode="fi" horiz-adv-x="497" 
d="M335 670q0 22 15 37.5t37 15.5t37.5 -15.5t15.5 -37.5q0 -21 -15.5 -36.5t-37.5 -15.5t-37 15.5t-15 36.5zM1 499q0 14 9 24t23 10h52v61q0 176 132 176q61 0 61 -38q0 -35 -41 -35q-40 0 -55.5 -25.5t-15.5 -77.5v-61h57q33 0 33 -34t-33 -34h-57v-425q0 -46 -41 -46
q-40 0 -40 46v425h-52q-14 0 -23 10t-9 24zM347 31v471q0 16 11.5 26.5t28.5 10.5t28.5 -10.5t11.5 -26.5v-471q0 -16 -11.5 -26.5t-28.5 -10.5t-28.5 10.5t-11.5 26.5z" />
    <glyph glyph-name="fl" unicode="fl" horiz-adv-x="501" 
d="M1 499q0 14 9 24t23 10h52v61q0 176 132 176q61 0 61 -38q0 -35 -41 -35q-40 0 -55.5 -25.5t-15.5 -77.5v-61h57q33 0 33 -34t-33 -34h-57v-425q0 -46 -41 -46q-40 0 -40 46v425h-52q-14 0 -23 10t-9 24zM348 31v702q0 16 11.5 26.5t28.5 10.5t28.5 -10.5t11.5 -26.5
v-702q0 -16 -11.5 -26.5t-28.5 -10.5t-28.5 10.5t-11.5 26.5z" />
    <glyph glyph-name=".notdef" horiz-adv-x="500" 
d="M0 0v700h500v-700h-500zM250 395l170 255h-340zM280 350l170 -255v510zM80 50h340l-170 255zM50 605v-510l170 255z" />
    <glyph glyph-name=".null" horiz-adv-x="0" 
 />
    <glyph glyph-name="nonmarkingreturn" horiz-adv-x="333" 
 />
    <glyph glyph-name="space" unicode=" " horiz-adv-x="244" 
 />
    <glyph glyph-name="exclam" unicode="!" horiz-adv-x="276" 
d="M98 243v437q0 17 11.5 27t28.5 10t28.5 -10t11.5 -27v-437q0 -17 -12 -28.5t-28 -11.5t-28 11.5t-12 28.5zM82 48q0 22 17 39t39 17t38.5 -16.5t16.5 -39.5q0 -22 -16.5 -38.5t-38.5 -16.5q-23 0 -39.5 16.5t-16.5 38.5z" />
    <glyph glyph-name="quotedbl" unicode="&#x22;" horiz-adv-x="332" 
d="M62 539v140q0 17 10 27.5t26 10.5t26 -10.5t10 -27.5v-140q0 -18 -10 -28.5t-26 -10.5t-26 10.5t-10 28.5zM197 539v140q0 17 10.5 27.5t25.5 10.5q16 0 26.5 -10t10.5 -28v-140q0 -18 -10.5 -28.5t-26.5 -10.5t-26 10.5t-10 28.5z" />
    <glyph glyph-name="numbersign" unicode="#" horiz-adv-x="542" 
d="M100 55l22 159h-69q-14 0 -22.5 9t-8.5 23t8.5 23t22.5 9h78l22 156h-69q-14 0 -22.5 9t-8.5 23q0 13 8.5 22.5t22.5 9.5h78l28 194q3 26 32 26q14 0 23 -8.5t9 -20.5q0 -5 -0.5 -10.5t-2 -12t-1.5 -8.5l-23 -160h128l28 194q3 26 32 26q14 0 23 -8t9 -21q0 -7 -2 -18
t-2 -13l-23 -160h70q14 0 22.5 -9.5t8.5 -22.5q0 -14 -8.5 -23t-22.5 -9h-79l-23 -156h72q13 0 22 -9t9 -23q0 -13 -9 -22.5t-22 -9.5h-81l-27 -191q-4 -28 -32 -28q-32 0 -32 29q0 5 2 17t2 14l22 159h-127l-27 -191q-4 -28 -33 -28q-14 0 -22.5 8t-8.5 21q0 11 4 31z
M218 434l-22 -156h127l23 156h-128z" />
    <glyph glyph-name="dollar" unicode="$" horiz-adv-x="463" 
d="M25 78q0 16 11 29t26 13q10 0 29 -13.5t51 -27t74 -13.5v272l-6 3q-38 16 -64 31t-53.5 39.5t-41.5 58.5t-14 78q0 73 49 117.5t130 51.5v41q0 11 8 19t20 8q10 0 18 -7.5t8 -18.5v-41q55 -5 99.5 -26.5t44.5 -46.5q0 -16 -10.5 -29t-27.5 -13q-10 0 -41 18t-65 23v-241
q56 -26 89 -48.5t57 -63.5t24 -96q0 -77 -44 -130.5t-126 -66.5v-52q0 -11 -7.5 -19t-18.5 -8q-12 0 -20 8t-8 19v47h-2q-74 0 -131.5 29t-57.5 56zM123 549q0 -43 23.5 -70t69.5 -51v216q-43 -6 -68 -31.5t-25 -63.5zM354 187q0 41 -19.5 70.5t-64.5 54.5v-240q42 12 63 43
t21 72z" />
    <glyph glyph-name="percent" unicode="%" horiz-adv-x="735" 
d="M192 375q-64 0 -109 48t-45 121q0 76 46 125.5t108 49.5t108 -49.5t46 -125.5q0 -73 -45.5 -121t-108.5 -48zM543 -7q-63 0 -108.5 48t-45.5 120q0 77 46 126.5t108 49.5t108.5 -49.5t46.5 -126.5q0 -72 -45.5 -120t-109.5 -48zM543 58q38 0 58.5 31t20.5 71q0 48 -21 78
t-58 30t-58 -30t-21 -78q0 -40 20.5 -71t58.5 -31zM192 442q38 0 58.5 30.5t20.5 71.5q0 47 -21.5 77.5t-57.5 30.5q-37 0 -58.5 -30t-21.5 -78q0 -41 20.5 -71.5t59.5 -30.5zM201 40l272 664q11 24 34 24q14 0 23 -8.5t9 -21.5q0 -6 -8 -25l-272 -663q-11 -26 -35 -26
q-13 0 -22.5 8.5t-9.5 20.5q0 3 9 27z" />
    <glyph glyph-name="ampersand" unicode="&#x26;" horiz-adv-x="669" 
d="M232 -6q-87 0 -140 53t-53 139q0 125 156 237q-68 89 -68 158q0 67 40.5 102t110.5 35q67 0 107.5 -33.5t40.5 -91.5q0 -51 -28 -92t-96 -91l152 -195q16 17 72 81q34 39 57 39q17 0 28 -9.5t11 -24.5q0 -12 -31 -47q-70 -79 -90 -99l75 -97q13 -15 13 -28
q0 -14 -12 -24.5t-28 -10.5q-21 -1 -40 26l-62 79q-61 -58 -108 -82t-107 -24zM237 66q40 0 77 21t87 71l-161 207q-115 -89 -115 -176q0 -54 32 -88.5t80 -34.5zM206 581q0 -43 53 -115q88 64 88 116q0 71 -73 71q-30 0 -49 -19.5t-19 -52.5z" />
    <glyph glyph-name="quotesingle" unicode="'" horiz-adv-x="193" 
d="M60 539v140q0 18 10.5 28t26.5 10q15 0 25.5 -10.5t10.5 -27.5v-140q0 -18 -10 -28.5t-26 -10.5t-26.5 10.5t-10.5 28.5z" />
    <glyph glyph-name="parenleft" unicode="(" horiz-adv-x="256" 
d="M187 -111q-23 0 -43 35q-103 196 -103 406q0 209 103 405q20 35 43 35q16 0 28 -11.5t12 -27.5q0 -11 -15 -41q-92 -172 -92 -360q0 -189 92 -361q15 -30 15 -41q0 -16 -12 -27.5t-28 -11.5z" />
    <glyph glyph-name="parenright" unicode=")" horiz-adv-x="256" 
d="M72 -111q-16 0 -28 11.5t-12 27.5q0 11 15 41q92 172 92 361q0 188 -92 360q-15 30 -15 41q0 16 12 27.5t28 11.5q23 0 43 -35q103 -196 103 -405q0 -210 -103 -406q-20 -35 -43 -35z" />
    <glyph glyph-name="asterisk" unicode="*" horiz-adv-x="388" 
d="M154 539q-11 5 -35 15t-34 14.5t-23.5 12.5t-18.5 16t-5 17q0 27 33 27q12 0 29.5 -11t74.5 -57q-13 90 -13 111q0 15 8.5 24.5t23.5 9.5t23.5 -9.5t8.5 -24.5q0 -21 -13 -111q91 68 104 68q33 0 33 -32q0 -14 -20 -26.5t-96 -43.5q95 -43 106 -52q10 -9 10 -18
q0 -32 -33 -32q-14 0 -104 68q13 -91 13 -111q0 -15 -8.5 -24.5t-23.5 -9.5t-23.5 9.5t-8.5 24.5q0 20 13 111q-14 -10 -29.5 -22.5t-23.5 -18t-17 -12t-14 -9.5t-10 -4.5t-10 -1.5q-33 0 -33 32q0 14 21.5 26.5t94.5 43.5z" />
    <glyph glyph-name="plus" unicode="+" 
d="M264 46v193h-184q-15 0 -24.5 11t-9.5 26t9.5 25.5t24.5 10.5h184v194q0 15 10.5 24.5t25.5 9.5t25.5 -9.5t10.5 -24.5v-194h185q15 0 24.5 -10.5t9.5 -25.5t-9.5 -26t-24.5 -11h-185v-193q0 -15 -10.5 -24.5t-25.5 -9.5t-25.5 9.5t-10.5 24.5z" />
    <glyph glyph-name="comma" unicode="," horiz-adv-x="244" 
d="M27 -60l64 123q14 30 41 30q18 0 31 -12t13 -28q0 -17 -13 -39l-58 -109q-16 -32 -40 -32q-19 0 -32.5 12t-13.5 29q0 12 8 26z" />
    <glyph glyph-name="hyphen" unicode="-" horiz-adv-x="359" 
d="M74 304h212q15 0 24.5 -10.5t9.5 -25.5t-9.5 -25.5t-24.5 -10.5h-212q-15 0 -24.5 10.5t-9.5 25.5t9.5 25.5t24.5 10.5z" />
    <glyph glyph-name="period" unicode="." horiz-adv-x="244" 
d="M66 48q0 22 17 39t39 17t38.5 -16.5t16.5 -39.5q0 -22 -16.5 -38.5t-38.5 -16.5q-23 0 -39.5 16.5t-16.5 38.5z" />
    <glyph glyph-name="slash" unicode="/" horiz-adv-x="391" 
d="M45 -25l229 767q10 28 39 28q16 0 26 -10.5t10 -26.5q0 -8 -4 -24l-228 -763q-8 -27 -38 -27q-16 0 -26.5 10t-10.5 25q0 10 3 21z" />
    <glyph glyph-name="zero" unicode="0" horiz-adv-x="513" 
d="M39 356q0 363 217 363q102 0 160 -87.5t58 -275.5q0 -363 -218 -363q-217 0 -217 363zM126 356q0 -288 130 -288q131 0 131 288t-131 288q-130 0 -130 -288z" />
    <glyph glyph-name="one" unicode="1" horiz-adv-x="453" 
d="M95 74h128v531l-120 -90q-14 -12 -28 -12q-16 0 -28 13t-12 29q0 19 19 33l184 132q12 7 27 7q16 0 27.5 -10t11.5 -26v-607h100q15 0 25 -11t10 -26t-10 -26t-25 -11h-308q-15 0 -24.5 11t-9.5 26t9.5 26t23.5 11z" />
    <glyph glyph-name="two" unicode="2" horiz-adv-x="461" 
d="M391 0h-308q-15 0 -26 11t-11 26q0 67 30.5 126.5t73.5 102.5t86 83t73.5 86t30.5 93q0 52 -30.5 84.5t-80.5 32.5q-75 0 -116 -68q-18 -29 -38 -29q-16 0 -28.5 12.5t-12.5 28.5q0 18 29 54q59 76 169 76q84 0 136 -53.5t52 -136.5q0 -57 -29.5 -111t-71.5 -95.5
t-84 -81t-71.5 -82.5t-29.5 -85h257q15 0 25 -11t10 -26t-10 -26t-25 -11z" />
    <glyph glyph-name="three" unicode="3" horiz-adv-x="475" 
d="M215 -7q-75 0 -128 28.5t-53 56.5q0 16 11 29t26 13q10 0 26 -13t45.5 -26.5t72.5 -13.5q61 0 97 35t36 96q0 73 -47 106.5t-116 33.5q-16 0 -26 11t-10 26q0 16 10 26.5t26 10.5q47 0 90 37t43 92q0 43 -23 73.5t-76 30.5q-44 0 -83.5 -22.5t-48.5 -22.5q-20 0 -30 13
t-10 29q0 24 27 40q67 37 145 37q88 0 136.5 -48.5t48.5 -123.5q0 -57 -30 -100t-77 -63q139 -44 139 -190q0 -91 -62 -146t-159 -55z" />
    <glyph glyph-name="four" unicode="4" horiz-adv-x="513" 
d="M489 224q0 -15 -9.5 -26t-24.5 -11h-47v-154q0 -18 -11.5 -28.5t-28.5 -10.5q-18 0 -29.5 10.5t-11.5 28.5v154h-258q-15 0 -27 12t-12 26q0 9 3 18l161 448q9 26 39 26q17 0 29 -10.5t12 -25.5q0 -9 -5 -19l-147 -401h205v234q0 16 12 26.5t29 10.5t28.5 -10.5
t11.5 -26.5v-234h47q15 0 24.5 -11t9.5 -26z" />
    <glyph glyph-name="five" unicode="5" horiz-adv-x="498" 
d="M214 -7q-62 0 -114.5 29t-52.5 56q0 16 11 29t26 13q11 0 28.5 -13t46 -26t67.5 -13q61 0 93.5 47t32.5 122q0 68 -32.5 108t-94.5 40q-28 0 -65 -14.5t-48 -14.5q-16 0 -28.5 12t-12.5 28v8l33 275q3 33 36 33h251q15 0 25 -11t10 -26q0 -16 -10 -26.5t-25 -10.5h-218
l-23 -202q44 22 97 22q85 0 138.5 -60.5t53.5 -152.5q0 -116 -59.5 -184t-165.5 -68z" />
    <glyph glyph-name="six" unicode="6" horiz-adv-x="500" 
d="M253 -6q-56 0 -99 22.5t-67 58.5t-36 76t-12 81q0 66 18 135t74.5 162.5t147.5 178.5q13 11 27 11q16 0 28.5 -13t12.5 -29q0 -18 -13 -28q-109 -95 -168 -218q43 28 102 28q90 0 141.5 -61.5t51.5 -165.5q0 -94 -54.5 -166t-153.5 -72zM247 69q55 0 91 41t36 116
q0 74 -34.5 116.5t-90.5 42.5q-123 0 -123 -159q0 -64 31.5 -110.5t89.5 -46.5z" />
    <glyph glyph-name="seven" unicode="7" horiz-adv-x="443" 
d="M155 -6q-17 0 -28.5 9.5t-11.5 25.5q0 11 4 19l214 590h-282q-16 0 -26.5 10.5t-10.5 25.5q0 16 10 27t24 11h338q15 0 26.5 -12.5t11.5 -27.5q0 -11 -8 -33l-222 -619q-9 -26 -39 -26z" />
    <glyph glyph-name="eight" unicode="8" horiz-adv-x="502" 
d="M251 -7q-98 0 -155 63.5t-57 154.5q0 64 32 115.5t82 70.5q-39 18 -62 58.5t-23 94.5q0 69 52.5 119t130.5 50t130.5 -50t52.5 -119q0 -53 -24 -93.5t-61 -59.5q53 -20 83 -70.5t30 -115.5q0 -91 -56.5 -154.5t-154.5 -63.5zM251 432q50 0 76 30.5t26 78.5q0 44 -29 74
t-73 30q-46 0 -74 -29t-28 -73q0 -49 26 -80t76 -31zM251 68q58 0 91 46t33 104t-33 100t-91 42t-91.5 -42t-33.5 -100t33.5 -104t91.5 -46z" />
    <glyph glyph-name="nine" unicode="9" horiz-adv-x="500" 
d="M247 719q56 0 99 -22.5t67 -59t36 -76.5t12 -81q0 -105 -54 -228.5t-186 -247.5q-12 -10 -27 -10q-16 0 -28.5 13t-12.5 29q0 18 14 28q108 94 168 218q-42 -28 -103 -28q-90 0 -141.5 61.5t-51.5 165.5q0 94 54.5 166t153.5 72zM253 644q-55 0 -90.5 -41t-35.5 -117
q0 -73 34 -116t90 -43q123 0 123 159q0 65 -31 111.5t-90 46.5z" />
    <glyph glyph-name="colon" unicode=":" horiz-adv-x="244" 
d="M66 372q0 22 17 39t39 17t38.5 -16.5t16.5 -39.5q0 -22 -16.5 -38.5t-38.5 -16.5q-23 0 -39.5 16.5t-16.5 38.5zM66 48q0 22 17 39t39 17t38.5 -16.5t16.5 -39.5q0 -22 -16.5 -38.5t-38.5 -16.5q-23 0 -39.5 16.5t-16.5 38.5z" />
    <glyph glyph-name="semicolon" unicode=";" horiz-adv-x="244" 
d="M66 372q0 22 17 39t39 17t38.5 -16.5t16.5 -39.5q0 -22 -16.5 -38.5t-38.5 -16.5q-23 0 -39.5 16.5t-16.5 38.5zM27 -60l64 123q14 30 41 30q18 0 31 -12t13 -28q0 -17 -13 -39l-58 -109q-16 -32 -40 -32q-19 0 -32.5 12t-13.5 29q0 12 8 26z" />
    <glyph glyph-name="less" unicode="&#x3c;" 
d="M35 255q0 23 27 37l426 218q16 7 25 7q14 0 22.5 -9.5t8.5 -23.5q0 -23 -24 -36l-375 -193l370 -192q29 -15 29 -38q0 -14 -9 -23.5t-22 -9.5q-9 0 -31 11l-420 216q-27 12 -27 36z" />
    <glyph glyph-name="equal" unicode="=" 
d="M80 397h441q15 0 24.5 -11t9.5 -26t-9.5 -25.5t-24.5 -10.5h-441q-15 0 -24.5 10.5t-9.5 25.5t9.5 26t24.5 11zM80 190h441q15 0 24.5 -11t9.5 -26t-9.5 -25.5t-24.5 -10.5h-441q-15 0 -24.5 10.5t-9.5 25.5t9.5 26t24.5 11z" />
    <glyph glyph-name="greater" unicode="&#x3e;" 
d="M565 255q0 -24 -27 -36l-420 -216q-22 -11 -31 -11q-13 0 -22 9.5t-9 23.5q0 23 29 38l370 192l-375 193q-24 13 -24 36q0 14 8.5 23.5t22.5 9.5q6 0 25 -7l426 -218q27 -14 27 -37z" />
    <glyph glyph-name="question" unicode="?" horiz-adv-x="425" 
d="M148 240v130q0 37 41 44q126 26 126 116q0 51 -30.5 83t-79.5 32q-71 0 -117 -68q-20 -29 -41 -29q-16 0 -27 11.5t-11 24.5q0 25 27 59q59 76 171 76q84 0 136 -53t52 -135q0 -76 -46 -121.5t-120 -62.5v-107q0 -16 -11.5 -28t-28.5 -12t-29 11.5t-12 28.5zM133 48
q0 22 16.5 39t39.5 17q22 0 38.5 -16.5t16.5 -39.5q0 -22 -16 -38.5t-39 -16.5t-39.5 16.5t-16.5 38.5z" />
    <glyph glyph-name="at" unicode="@" horiz-adv-x="885" 
d="M313 195q0 -105 82 -105q63 0 110.5 79.5t47.5 150.5q0 36 -20.5 58.5t-61.5 22.5q-65 0 -111.5 -67.5t-46.5 -138.5zM450 -170q-172 0 -294 122.5t-122 295.5q0 170 121.5 290t293.5 120q176 0 289 -105t113 -273q0 -116 -80 -192t-174 -76q-39 0 -62.5 22t-23.5 59
q-53 -77 -138 -77q-70 0 -109 48t-39 125q0 70 30 135.5t85.5 108t122.5 42.5q88 0 124 -81l13 36q11 27 39 27q15 0 26 -10.5t11 -25.5q0 -10 -6 -28l-77 -224q-11 -29 -11 -51q0 -15 8 -26.5t24 -11.5q56 0 111 58t55 138q0 145 -92.5 227t-238.5 82q-142 0 -241.5 -99.5
t-99.5 -241.5q0 -143 99.5 -242t240.5 -99q60 0 108 9t83 28.5t48.5 29.5t38.5 32l7.5 7.5t8.5 8t8 5t11 2.5q14 0 25 -11.5t11 -24.5q0 -14 -12 -25q-141 -134 -335 -134z" />
    <glyph glyph-name="A" unicode="A" horiz-adv-x="565" 
d="M472 19l-50 158h-279l-50 -158q-11 -25 -38 -25q-18 0 -30 10.5t-12 26.5q0 9 3 13l189 575q10 32 15.5 45.5t14 28.5t19.5 20t28 5q22 0 36 -12.5t21 -28.5t20 -57l189 -573q3 -12 3 -16q0 -17 -12 -27t-29 -10q-31 0 -38 25zM282 618l-116 -366h232z" />
    <glyph glyph-name="B" unicode="B" horiz-adv-x="522" 
d="M73 40v631q0 18 11 29.5t29 11.5h142q59 0 100.5 -16t62 -43.5t29.5 -57t9 -63.5q0 -119 -125 -147q76 -12 114.5 -58.5t38.5 -122.5q0 -88 -53 -146t-165 -58h-153q-18 0 -29 11t-11 29zM154 638v-228h82q55 0 97 33.5t42 83.5t-32 80.5t-98 30.5h-91zM154 341v-267h103
q146 0 146 133q0 61 -39 97.5t-108 36.5h-102z" />
    <glyph glyph-name="C" unicode="C" horiz-adv-x="551" 
d="M319 -7q-276 0 -276 363t292 363q77 0 136.5 -33t59.5 -63q0 -15 -11 -27t-26 -12q-11 0 -30.5 15t-52.5 30.5t-78 15.5q-62 0 -104.5 -25.5t-62.5 -71t-27.5 -90.5t-7.5 -102q0 -289 193 -289q49 0 85.5 13t56.5 26t29 13q14 0 25 -12.5t11 -26.5q0 -30 -66 -58.5
t-146 -28.5z" />
    <glyph glyph-name="D" unicode="D" horiz-adv-x="613" 
d="M73 40v631q0 18 11 29.5t29 11.5h176q281 0 281 -360q0 -168 -70.5 -260t-215.5 -92h-171q-18 0 -29 11t-11 29zM154 638v-564h123q49 0 86 15t59.5 40t36 63t18.5 79t5 93q0 274 -200 274h-128z" />
    <glyph glyph-name="E" unicode="E" horiz-adv-x="474" 
d="M72 40v631q0 19 11.5 30t29.5 11h312q15 0 24.5 -11t9.5 -26q0 -16 -9.5 -26.5t-24.5 -10.5h-271v-246h198q15 0 24.5 -10.5t9.5 -26.5q0 -15 -9.5 -26t-24.5 -11h-199v-244h272q15 0 24.5 -11t9.5 -26t-9.5 -26t-24.5 -11h-312q-18 0 -29.5 11t-11.5 29z" />
    <glyph glyph-name="F" unicode="F" horiz-adv-x="444" 
d="M72 31v640q0 18 11.5 29.5t29.5 11.5h312q15 0 24.5 -11t9.5 -26q0 -16 -9.5 -26.5t-24.5 -10.5h-272v-246h199q15 0 24.5 -10.5t9.5 -26.5q0 -15 -9.5 -26t-24.5 -11h-199v-287q0 -16 -11.5 -26.5t-28.5 -10.5t-29 10.5t-12 26.5z" />
    <glyph glyph-name="G" unicode="G" horiz-adv-x="608" 
d="M386 361h124q36 0 50 -15.5t14 -43.5v-56q0 -119 -67 -186t-187 -67q-277 0 -277 363t293 363q75 0 136 -33.5t61 -62.5q0 -15 -11 -27t-26 -12q-11 0 -31 15t-53.5 30.5t-77.5 15.5q-63 0 -105.5 -25.5t-62.5 -71t-27.5 -90.5t-7.5 -102q0 -289 193 -289q85 0 127 46.5
t42 126.5v47h-107q-19 0 -29.5 10.5t-10.5 26.5t10.5 26.5t29.5 10.5z" />
    <glyph glyph-name="H" unicode="H" horiz-adv-x="631" 
d="M154 328v-296q0 -17 -11.5 -27.5t-29.5 -10.5q-17 0 -28.5 10.5t-11.5 27.5v648q0 17 11.5 27t28.5 10q18 0 29.5 -10t11.5 -27v-278h323v278q0 17 11.5 27t28.5 10q18 0 29.5 -10t11.5 -27v-648q0 -17 -11.5 -27.5t-29.5 -10.5q-17 0 -28.5 10.5t-11.5 27.5v296h-323z
" />
    <glyph glyph-name="I" unicode="I" horiz-adv-x="353" 
d="M136 641h-62q-15 0 -25 10t-10 25t9.5 25.5t24.5 10.5h207q15 0 24.5 -10.5t9.5 -25.5t-9.5 -25t-24.5 -10h-63v-570h63q15 0 24.5 -10t9.5 -25t-9.5 -25.5t-24.5 -10.5h-207q-15 0 -24.5 10.5t-9.5 25.5t9.5 25t24.5 10h63v570z" />
    <glyph glyph-name="J" unicode="J" horiz-adv-x="400" 
d="M246 172v508q0 17 11.5 27t29.5 10q17 0 28.5 -10t11.5 -27v-510q0 -177 -165 -177q-57 0 -102 29.5t-45 56.5q0 15 10.5 27.5t25.5 12.5q12 0 26.5 -12.5t35.5 -25.5t48 -13q48 0 66.5 26.5t18.5 77.5z" />
    <glyph glyph-name="K" unicode="K" horiz-adv-x="518" 
d="M153 680v-285l257 306q10 16 35 16q17 0 28.5 -9.5t11.5 -25.5q0 -12 -13 -29l-243 -288l272 -309q13 -15 13 -28q0 -15 -11.5 -24.5t-28.5 -9.5q-20 0 -32 13l-289 325v-301q0 -16 -11.5 -26.5t-28.5 -10.5t-29 10.5t-12 26.5v649q0 17 11.5 27t29.5 10q17 0 28.5 -10
t11.5 -27z" />
    <glyph glyph-name="L" unicode="L" horiz-adv-x="435" 
d="M72 40v640q0 17 11.5 27t29.5 10q17 0 28.5 -10t11.5 -27v-606h242q15 0 25 -11t10 -26t-10 -26t-25 -11h-282q-18 0 -29.5 11t-11.5 29z" />
    <glyph glyph-name="M" unicode="M" horiz-adv-x="768" 
d="M644 639q49 -330 82 -546q9 -58 9 -62q0 -16 -12 -26.5t-29 -10.5q-34 0 -41 31l-82 587l-124 -539q-9 -41 -24 -57t-39 -16q-26 0 -39.5 15.5t-23.5 57.5l-126 538l-81 -586q-5 -31 -40 -31q-17 0 -29 10.5t-12 25.5q0 7 1 12l89 597q7 46 23 62t50 16q29 0 44.5 -17
t25.5 -61l117 -529l118 529q10 45 26.5 61.5t45.5 16.5q33 0 48.5 -16t22.5 -62z" />
    <glyph glyph-name="N" unicode="N" horiz-adv-x="631" 
d="M73 31v650q0 16 11 26t28 10q26 0 41 -23l324 -526v512q0 17 11.5 27t28.5 10q18 0 29.5 -10t11.5 -27v-648q0 -17 -11 -27.5t-28 -10.5q-26 0 -39 21l-326 531v-515q0 -16 -12 -26.5t-29 -10.5t-28.5 10.5t-11.5 26.5z" />
    <glyph glyph-name="O" unicode="O" horiz-adv-x="642" 
d="M321 -7q-278 0 -278 363q0 169 67 266t211 97t210.5 -97t66.5 -266q0 -175 -65.5 -269t-211.5 -94zM321 67q190 0 190 289t-190 289t-190 -289t190 -289z" />
    <glyph glyph-name="P" unicode="P" horiz-adv-x="502" 
d="M72 31v639q0 19 11.5 30.5t29.5 11.5h159q57 0 99.5 -20t66 -53t34.5 -69.5t11 -74.5q0 -98 -56 -162.5t-171 -64.5h-103v-237q0 -16 -11.5 -26.5t-28.5 -10.5t-29 10.5t-12 26.5zM153 638v-297h105q76 0 110 44t34 105q0 62 -34.5 105t-109.5 43h-105z" />
    <glyph glyph-name="Q" unicode="Q" horiz-adv-x="642" 
d="M310 -7q-267 0 -267 363q0 169 67 266t211 97q277 0 277 -363q0 -202 -101 -295l50 -93q7 -10 7 -21q0 -14 -12 -25.5t-28 -11.5q-20 0 -35 28l-43 81q-55 -26 -126 -26zM321 67q48 0 80 16l-50 92q-11 22 -11 31q0 15 12.5 26.5t27.5 11.5q21 0 34 -26l46 -86
q51 71 51 224q0 289 -190 289t-190 -289t190 -289z" />
    <glyph glyph-name="R" unicode="R" horiz-adv-x="532" 
d="M72 31v640q0 18 11 29.5t28 11.5h161q110 0 160.5 -57.5t50.5 -138.5q0 -163 -143 -200l170 -261q9 -16 9 -26q0 -15 -12.5 -25t-30.5 -10q-28 0 -39 20l-185 293h-99v-276q0 -16 -11.5 -26.5t-28.5 -10.5t-29 10.5t-12 26.5zM153 638v-257h105q144 0 144 130
q0 127 -144 127h-105z" />
    <glyph glyph-name="S" unicode="S" horiz-adv-x="468" 
d="M217 -7q-75 0 -132.5 29t-57.5 56q0 16 11 29t26 13q10 0 29 -13t51 -26.5t74 -13.5q68 0 101.5 35t33.5 86q0 53 -31 86t-110 67q-80 34 -126 79.5t-46 127.5q0 81 58 126t151 45q60 0 113.5 -23t53.5 -51q0 -16 -10.5 -29t-26.5 -13q-10 0 -26.5 10.5t-44 21
t-64.5 10.5q-53 0 -85 -27t-32 -69q0 -51 31 -79t98 -59q47 -21 75 -37.5t56 -41.5t41 -59t13 -78q0 -90 -58 -146t-166 -56z" />
    <glyph glyph-name="T" unicode="T" horiz-adv-x="448" 
d="M183 638h-141q-15 0 -25 10.5t-10 26.5q0 15 10 26t25 11h364q15 0 24.5 -11t9.5 -26q0 -16 -9.5 -26.5t-24.5 -10.5h-142v-607q0 -16 -11.5 -26.5t-28.5 -10.5t-29 10.5t-12 26.5v607z" />
    <glyph glyph-name="U" unicode="U" horiz-adv-x="612" 
d="M63 247v433q0 17 11.5 27t29.5 10q17 0 28.5 -10t11.5 -27v-425q0 -93 43 -139.5t119 -46.5t119 46.5t43 139.5v425q0 17 11.5 27t28.5 10q18 0 29.5 -10t11.5 -27v-433q0 -122 -65 -187.5t-178 -65.5t-178 65.5t-65 187.5z" />
    <glyph glyph-name="V" unicode="V" horiz-adv-x="543" 
d="M82 692l189 -592l190 592q8 25 38 25q17 0 29.5 -10t12.5 -25q0 -3 -3 -15l-193 -576q-11 -33 -16 -45t-13.5 -27.5t-18.5 -20t-26 -4.5q-15 0 -25.5 4.5t-19 20t-13 28t-15.5 44.5l-192 574q-4 12 -4 17q0 15 12.5 25t29.5 10q31 0 38 -25z" />
    <glyph glyph-name="W" unicode="W" horiz-adv-x="761" 
d="M143 73l-118 543q-11 52 -11 64q0 17 12 27t29 10q33 0 40 -31l120 -573l105 500q8 40 22 56.5t39 16.5t38.5 -16t22.5 -58l104 -499l120 573q6 31 40 31q18 0 29.5 -10t11.5 -26q0 -7 -1 -13l-128 -595q-10 -46 -25 -62.5t-44 -16.5q-32 0 -47 16.5t-27 62.5l-94 472
l-96 -472q-10 -47 -25 -63t-48 -16q-30 0 -44.5 16.5t-24.5 62.5z" />
    <glyph glyph-name="X" unicode="X" horiz-adv-x="512" 
d="M100 688l157 -248l155 248q18 29 45 29q17 0 28.5 -9.5t11.5 -25.5q0 -13 -16 -38l-177 -278l187 -296q17 -26 17 -41t-11.5 -25t-28.5 -10q-16 0 -23.5 6t-18.5 22l-174 275l-165 -275q-10 -16 -18.5 -22t-24.5 -6q-17 0 -28.5 10t-11.5 25q0 13 18 41l183 301l-172 272
q-18 29 -18 40q0 15 11.5 24.5t29.5 9.5q27 0 44 -29z" />
    <glyph glyph-name="Y" unicode="Y" horiz-adv-x="493" 
d="M206 40v239l-190 365q-13 22 -13 38t12 25.5t30 9.5q25 0 38 -26l163 -331l163 331q13 26 40 26q18 0 29.5 -9.5t11.5 -25.5q0 -14 -12 -38l-191 -365v-239q0 -46 -41 -46q-40 0 -40 46z" />
    <glyph glyph-name="Z" unicode="Z" horiz-adv-x="473" 
d="M419 0h-363q-15 0 -26 12t-11 27q0 12 14 36l311 563h-278q-16 0 -25.5 10.5t-9.5 26.5q0 15 10 26t25 11h340q15 0 26 -12t11 -27q0 -13 -13 -33l-313 -566h302q15 0 25 -11t10 -26t-10 -26t-25 -11z" />
    <glyph glyph-name="bracketleft" unicode="[" horiz-adv-x="276" 
d="M169 -28h49q15 0 24.5 -10.5t9.5 -25.5t-9.5 -25.5t-24.5 -10.5h-88q-18 0 -29 11t-11 29v780q0 18 11 29t29 11h88q15 0 24.5 -10.5t9.5 -25.5t-9.5 -25.5t-24.5 -10.5h-49v-716z" />
    <glyph glyph-name="backslash" unicode="\" horiz-adv-x="391" 
d="M117 742l229 -767q3 -11 3 -21q0 -15 -10.5 -25t-26.5 -10q-30 0 -38 27l-228 763q-4 16 -4 24q0 16 10 26.5t26 10.5q29 0 39 -28z" />
    <glyph glyph-name="bracketright" unicode="]" horiz-adv-x="276" 
d="M58 -28h50v716h-50q-15 0 -24.5 10.5t-9.5 25.5t9.5 25.5t24.5 10.5h88q18 0 29 -11t11 -29v-780q0 -18 -11 -29t-29 -11h-88q-15 0 -24.5 10.5t-9.5 25.5t9.5 25.5t24.5 10.5z" />
    <glyph glyph-name="asciicircum" unicode="^" 
d="M59 324l206 370q12 24 35 24q22 0 35 -24l206 -370q9 -17 9 -30t-10 -20t-25 -7q-24 1 -44 36l-171 311l-172 -311q-18 -35 -43 -36q-15 0 -25 7t-10 20t9 30z" />
    <glyph glyph-name="underscore" unicode="_" horiz-adv-x="500" 
d="M0 -125q-29 0 -29 25t29 25h500q29 0 29 -25t-29 -25h-500z" />
    <glyph glyph-name="grave" unicode="`" horiz-adv-x="206" 
d="M38 733l149 -59q26 -10 26 -37q0 -15 -10 -25t-25 -10q-8 0 -17 3l-151 60q-24 11 -24 33q0 16 11 26.5t27 10.5q11 0 14 -2z" />
    <glyph glyph-name="a" unicode="a" horiz-adv-x="496" 
d="M201 -6q-70 0 -118.5 38t-48.5 123q0 78 59 117t140 39q72 0 128 -14v21q0 148 -125 148q-38 0 -65 -9t-43 -18t-26 -9q-15 0 -24.5 11.5t-9.5 26.5q0 30 48 51t120 21q109 0 156 -56.5t47 -180.5v-272q0 -16 -12 -26.5t-29 -10.5t-28 10.5t-11 26.5v47q-48 -84 -158 -84
zM120 155q0 -89 93 -89q60 0 102.5 46t42.5 117q-42 16 -110 16q-59 0 -93.5 -25t-34.5 -65z" />
    <glyph glyph-name="b" unicode="b" horiz-adv-x="547" 
d="M509 267q0 -126 -55 -199.5t-168 -73.5q-92 0 -137 71v-34q0 -16 -11 -26.5t-28 -10.5t-28.5 10.5t-11.5 26.5v702q0 16 11.5 26.5t28.5 10.5t28.5 -10.5t11.5 -26.5v-293q38 100 148 100q105 0 158 -77.5t53 -195.5zM424 267q0 82 -33 140.5t-104 58.5t-104 -58.5
t-33 -140.5t33 -140.5t104 -58.5q72 0 104.5 58t32.5 141z" />
    <glyph glyph-name="c" unicode="c" horiz-adv-x="442" 
d="M259 -6q-110 0 -165.5 74t-55.5 199q0 118 57 195.5t173 77.5q60 0 102 -18.5t42 -41.5q0 -17 -10.5 -29.5t-25.5 -12.5q-3 0 -32.5 14t-75.5 14q-76 0 -110.5 -58t-34.5 -141q0 -82 33 -140.5t104 -58.5q42 0 75 13.5t41 13.5q15 0 25.5 -11.5t10.5 -26.5q0 -16 -12 -25
q-16 -16 -56 -27t-85 -11z" />
    <glyph glyph-name="d" unicode="d" horiz-adv-x="547" 
d="M249 -6q-104 0 -157.5 74t-53.5 199q0 118 54.5 195.5t164.5 77.5q94 0 140 -69v261q0 16 11.5 26.5t28.5 10.5t28.5 -10.5t11.5 -26.5v-701q0 -16 -11.5 -26.5t-28.5 -10.5t-28 10.5t-11 26.5v61q-38 -98 -149 -98zM123 267q0 -52 12 -94.5t43.5 -73.5t79.5 -31
q70 0 104.5 59t34.5 140q0 82 -33 140.5t-104 58.5t-104 -58.5t-33 -140.5z" />
    <glyph glyph-name="e" unicode="e" horiz-adv-x="503" 
d="M260 -6q-111 0 -166.5 73.5t-55.5 199.5q0 118 55.5 195.5t164.5 77.5q107 0 158.5 -74.5t51.5 -185.5q0 -22 -11.5 -34.5t-30.5 -12.5h-301q16 -166 144 -166q48 0 88 14t45 14q15 0 25 -11.5t10 -26.5q0 -19 -25 -31q-70 -32 -152 -32zM125 297h257q-3 73 -33.5 121.5
t-94.5 48.5q-59 0 -93 -51t-36 -119z" />
    <glyph glyph-name="f" unicode="f" horiz-adv-x="279" 
d="M10 499q0 14 9 24t23 10h52v61q0 176 132 176q61 0 61 -38q0 -35 -41 -35q-40 0 -55.5 -25.5t-15.5 -77.5v-61h57q33 0 33 -34t-33 -34h-57v-425q0 -46 -41 -46q-40 0 -40 46v425h-52q-14 0 -23 10t-9 24z" />
    <glyph glyph-name="g" unicode="g" horiz-adv-x="546" 
d="M38 267q0 118 54.5 195.5t162.5 77.5q97 0 142 -73v35q0 16 11 26.5t28 10.5t28.5 -10.5t11.5 -26.5v-470q0 -118 -65 -171.5t-167 -53.5q-70 0 -132.5 24t-62.5 56q0 17 12 29.5t28 12.5q10 0 29.5 -12.5t52 -24.5t73.5 -12q152 0 152 148v47q-52 -80 -145 -80
q-106 0 -159.5 73.5t-53.5 198.5zM123 267q0 -51 12 -94t43 -74t77 -31q72 0 107 59t35 140q0 82 -33 140.5t-104 58.5t-104 -58.5t-33 -140.5z" />
    <glyph glyph-name="h" unicode="h" horiz-adv-x="530" 
d="M70 31v702q0 16 11.5 26.5t28.5 10.5t28.5 -10.5t11.5 -26.5v-277q49 84 148 84q71 0 118 -49.5t47 -140.5v-319q0 -16 -11.5 -26.5t-28.5 -10.5t-28.5 10.5t-11.5 26.5v317q0 55 -28 87t-77 32q-58 0 -93 -42.5t-35 -118.5v-275q0 -16 -11.5 -26.5t-28.5 -10.5
t-28.5 10.5t-11.5 26.5z" />
    <glyph glyph-name="i" unicode="i" horiz-adv-x="220" 
d="M57 670q0 22 15.5 37.5t37.5 15.5t37.5 -15.5t15.5 -37.5q0 -21 -15.5 -36.5t-37.5 -15.5t-37.5 15.5t-15.5 36.5zM70 31v471q0 16 11.5 26.5t28.5 10.5t28.5 -10.5t11.5 -26.5v-471q0 -16 -11.5 -26.5t-28.5 -10.5t-28.5 10.5t-11.5 26.5z" />
    <glyph glyph-name="j" unicode="j" horiz-adv-x="220" 
d="M70 -16v507q0 48 40 48t40 -48v-508q0 -90 -36 -133t-114 -43q-22 0 -32.5 10.5t-10.5 25.5q0 18 10.5 28.5t29.5 10.5q44 0 58.5 23.5t14.5 78.5zM57 670q0 22 15.5 37.5t37.5 15.5t37.5 -15.5t15.5 -37.5q0 -21 -15.5 -36.5t-37.5 -15.5t-37.5 15.5t-15.5 36.5z" />
    <glyph glyph-name="k" unicode="k" horiz-adv-x="455" 
d="M70 31v702q0 16 11.5 26.5t28.5 10.5t28.5 -10.5t11.5 -26.5v-418l199 208q12 16 33 16q17 0 29.5 -10.5t12.5 -25.5q0 -12 -14 -29l-180 -188l201 -231q10 -13 10 -27t-12.5 -24t-29.5 -10q-23 0 -37 18l-212 244v-225q0 -16 -11.5 -26.5t-28.5 -10.5t-28.5 10.5
t-11.5 26.5z" />
    <glyph glyph-name="l" unicode="l" horiz-adv-x="220" 
d="M70 31v702q0 16 11.5 26.5t28.5 10.5t28.5 -10.5t11.5 -26.5v-702q0 -16 -11.5 -26.5t-28.5 -10.5t-28.5 10.5t-11.5 26.5z" />
    <glyph glyph-name="m" unicode="m" horiz-adv-x="835" 
d="M70 31v471q0 16 11.5 26.5t28.5 10.5t28 -10.5t11 -26.5v-49q48 87 148 87q50 0 88.5 -25t57.5 -74q26 50 64 74.5t99 24.5q75 0 120.5 -49t45.5 -141v-318q0 -17 -11.5 -27.5t-28.5 -10.5t-28.5 10.5t-11.5 27.5v316q0 60 -28 89.5t-75 29.5q-57 0 -92.5 -43.5
t-35.5 -117.5v-275q0 -16 -11.5 -26.5t-28.5 -10.5t-28.5 10.5t-11.5 26.5v317q0 54 -27.5 86.5t-76.5 32.5q-58 0 -92.5 -43t-34.5 -118v-275q0 -16 -11.5 -26.5t-28.5 -10.5t-28.5 10.5t-11.5 26.5z" />
    <glyph glyph-name="n" unicode="n" horiz-adv-x="526" 
d="M70 31v471q0 16 11.5 26.5t28.5 10.5t28 -10.5t11 -26.5v-49q48 87 149 87q71 0 118 -49.5t47 -140.5v-319q0 -16 -11.5 -26.5t-28.5 -10.5t-28.5 10.5t-11.5 26.5v317q0 55 -28 87t-77 32q-58 0 -93 -42.5t-35 -118.5v-275q0 -16 -11.5 -26.5t-28.5 -10.5t-28.5 10.5
t-11.5 26.5z" />
    <glyph glyph-name="o" unicode="o" horiz-adv-x="520" 
d="M38 267q0 76 22 135.5t73.5 98.5t126.5 39q111 0 166.5 -77.5t55.5 -195.5q0 -126 -55.5 -199.5t-166.5 -73.5t-166.5 74t-55.5 199zM123 267q0 -82 33 -140.5t104 -58.5t104 58.5t33 140.5t-33 140.5t-104 58.5t-104 -58.5t-33 -140.5z" />
    <glyph glyph-name="p" unicode="p" horiz-adv-x="547" 
d="M509 267q0 -126 -55 -199.5t-168 -73.5q-90 0 -136 70v-220q0 -16 -11.5 -26.5t-28.5 -10.5t-28.5 10.5t-11.5 26.5v658q0 16 11.5 26.5t28.5 10.5t28 -10.5t11 -26.5v-63q40 101 150 101q104 0 157 -77.5t53 -195.5zM424 267q0 82 -33 140.5t-104 58.5t-104 -58.5
t-33 -140.5t33 -140.5t104 -58.5q72 0 104.5 58t32.5 141z" />
    <glyph glyph-name="q" unicode="q" horiz-adv-x="540" 
d="M38 267q0 118 55 195.5t165 77.5q94 0 139 -73v26q0 46 39 46q40 0 40 -46v-640q0 -46 -40 -46t-40 46v237q-39 -96 -148 -96q-104 0 -157 74t-53 199zM124 267q0 -51 12 -94t43 -74t77 -31q72 0 107 59t35 140q0 82 -33 140.5t-104 58.5q-72 0 -104.5 -58t-32.5 -141z
" />
    <glyph glyph-name="r" unicode="r" horiz-adv-x="323" 
d="M62 31v471q0 16 11.5 26.5t28.5 10.5t28 -10.5t11 -26.5v-49q49 87 132 87q47 0 47 -41q0 -40 -46 -40q-132 0 -132 -153v-275q0 -16 -11.5 -26.5t-28.5 -10.5t-28.5 10.5t-11.5 26.5z" />
    <glyph glyph-name="s" unicode="s" horiz-adv-x="439" 
d="M213 -6q-43 0 -89 12t-71 29q-23 14 -23 32q0 17 11.5 29t28.5 12q7 0 52.5 -20.5t99.5 -20.5q48 0 71.5 21.5t23.5 57.5q0 32 -26.5 52t-98.5 51q-79 35 -112.5 70t-33.5 86q0 64 47 99.5t126 35.5q59 0 113.5 -22.5t54.5 -49.5q0 -15 -9.5 -26.5t-28.5 -11.5
q-10 0 -49 18t-82 18q-37 0 -62.5 -16t-25.5 -49q0 -20 19.5 -39.5t72.5 -42.5q98 -43 138 -77.5t40 -93.5q0 -71 -51.5 -112.5t-135.5 -41.5z" />
    <glyph glyph-name="t" unicode="t" horiz-adv-x="312" 
d="M10 499q0 14 9 24t23 10h52v80q0 48 40 48q41 0 41 -48v-80h95q32 0 32 -34t-32 -34h-95v-294q0 -52 15 -78t60 -26q16 0 26.5 -9.5t10.5 -25.5q0 -19 -12.5 -28.5t-48.5 -9.5q-72 0 -102 43t-30 133v295h-52q-14 0 -23 10t-9 24z" />
    <glyph glyph-name="u" unicode="u" horiz-adv-x="515" 
d="M61 177v325q0 16 11.5 26.5t28.5 10.5t28.5 -10.5t11.5 -26.5v-306q0 -134 117 -134q116 0 116 134v306q0 16 11.5 26.5t28.5 10.5t28.5 -10.5t11.5 -26.5v-325q0 -87 -53.5 -135t-142.5 -48t-143 48t-54 135z" />
    <glyph glyph-name="v" unicode="v" horiz-adv-x="446" 
d="M184 22l-162 462q-4 14 -4 19q0 16 11.5 26t28.5 10q32 0 41 -28l124 -377l124 377q9 28 40 28q17 0 29 -10t12 -26q0 -7 -4 -19l-162 -462q-10 -28 -39 -28t-39 28z" />
    <glyph glyph-name="w" unicode="w" horiz-adv-x="674" 
d="M159 22l-131 454q-5 16 -5 27q0 16 11 26t30 10q31 0 40 -34l94 -360l100 364q8 30 39 30q30 0 39 -30l100 -363l95 363q7 30 38 30q18 0 29.5 -10t11.5 -26q0 -11 -5 -27l-129 -452q-9 -30 -41 -30q-28 0 -37 30l-101 360l-101 -358q-8 -32 -39 -32t-38 28z" />
    <glyph glyph-name="x" unicode="x" horiz-adv-x="476" 
d="M400 -6q-25 0 -36 17l-132 197l-120 -197q-11 -17 -36 -17q-17 0 -28.5 10t-11.5 25q0 13 6 21l148 221l-142 208q-8 14 -8 24q0 16 12 26t29 10q25 0 36 -18l124 -183l117 182q13 19 37 19q17 0 29 -10t12 -26q0 -10 -9 -23l-142 -208l148 -219q7 -11 7 -24
q0 -16 -11.5 -25.5t-28.5 -9.5z" />
    <glyph glyph-name="y" unicode="y" horiz-adv-x="446" 
d="M181 33l-159 451q-4 14 -4 19q0 16 11.5 26t28.5 10q32 0 41 -28l124 -377l124 377q10 28 40 28q17 0 29 -10t12 -26q0 -7 -4 -19l-229 -651q-7 -26 -40 -26q-16 0 -27.5 10t-11.5 24q0 16 6 31z" />
    <glyph glyph-name="z" unicode="z" horiz-adv-x="443" 
d="M35 64l270 396h-228q-15 0 -24.5 10.5t-9.5 25.5q0 16 9.5 26.5t24.5 10.5h300q15 0 25 -11.5t10 -25.5t-6 -23l-272 -399h250q15 0 24.5 -11t9.5 -26t-9.5 -26t-24.5 -11h-322q-15 0 -25.5 11.5t-10.5 26.5q0 11 9 26z" />
    <glyph glyph-name="braceleft" unicode="{" horiz-adv-x="298" 
d="M202 -100q-101 0 -101 110v161q0 71 -12.5 100t-47.5 29q-11 0 -19 9t-8 20q0 12 8 21t19 9q35 0 47.5 29t12.5 100v158q0 56 26.5 85t74.5 29h38q15 0 24.5 -10.5t9.5 -25.5t-9.5 -25.5t-24.5 -10.5h-21q-40 0 -40 -64v-152q0 -68 -25 -102.5t-57 -38.5v-3
q31 -5 56.5 -39.5t25.5 -101.5v-150q0 -65 39 -65h22q15 0 24.5 -10.5t9.5 -25.5t-9.5 -25.5t-24.5 -10.5h-38z" />
    <glyph glyph-name="bar" unicode="|" horiz-adv-x="266" 
d="M97 -48v784q0 15 10.5 24.5t25.5 9.5t25.5 -9.5t10.5 -23.5v-785q0 -14 -10.5 -23.5t-25.5 -9.5t-25.5 9.5t-10.5 23.5z" />
    <glyph glyph-name="braceright" unicode="}" horiz-adv-x="298" 
d="M96 -100h-38q-15 0 -24.5 10.5t-9.5 25.5t9.5 25.5t24.5 10.5h23q38 0 38 65v150q0 67 25.5 101.5t56.5 39.5v3q-32 4 -57 38.5t-25 102.5v152q0 64 -39 64h-22q-15 0 -24.5 10.5t-9.5 25.5t9.5 25.5t24.5 10.5h38q48 0 75 -29t27 -85v-158q0 -71 12 -100t47 -29
q11 0 19 -9t8 -21q0 -11 -8 -20t-19 -9q-35 0 -47 -29t-12 -100v-161q0 -110 -102 -110z" />
    <glyph glyph-name="asciitilde" unicode="~" 
d="M98 186q-14 0 -24 8t-10 24q0 37 37.5 75.5t87.5 38.5q46 0 112.5 -37.5t98.5 -37.5q23 0 38.5 11.5t22 25.5t17 25.5t24.5 11.5t24 -8.5t10 -24.5q0 -38 -35.5 -75.5t-90.5 -37.5q-53 0 -115.5 37t-95.5 37q-21 0 -36.5 -11.5t-22.5 -25t-18 -25t-24 -11.5z" />
    <glyph glyph-name="uni00A0" unicode="&#xa0;" horiz-adv-x="244" 
 />
    <glyph glyph-name="exclamdown" unicode="&#xa1;" horiz-adv-x="276" 
d="M98 -156v446q0 16 12 28t28 12t28 -12t12 -28v-446q0 -16 -11.5 -26.5t-28.5 -10.5t-28.5 10.5t-11.5 26.5zM82 484q0 22 17 39t39 17t38.5 -16.5t16.5 -39.5q0 -22 -16.5 -38.5t-38.5 -16.5q-23 0 -39.5 16.5t-16.5 38.5z" />
    <glyph glyph-name="cent" unicode="&#xa2;" horiz-adv-x="446" 
d="M43 267q0 70 19 126.5t64 96.5t112 48v50q0 11 8.5 19t19.5 8q10 0 18 -7.5t8 -18.5v-50q53 -3 89 -20.5t36 -38.5q0 -17 -10.5 -29.5t-25.5 -12.5q-5 0 -29.5 12.5t-59.5 14.5v-396q27 3 53 14.5t36 11.5q15 0 25.5 -11.5t10.5 -26.5q0 -16 -12 -25q-31 -29 -113 -37
v-49q0 -11 -7.5 -19t-18.5 -8t-19.5 8t-8.5 19v50q-97 9 -146 81t-49 190zM128 267q0 -73 26.5 -129t83.5 -68v392q-58 -14 -84 -68.5t-26 -126.5z" />
    <glyph glyph-name="sterling" unicode="&#xa3;" horiz-adv-x="545" 
d="M96 76q43 43 69 84.5t26 94.5q0 34 -10 70h-113q-15 0 -24.5 11t-9.5 26t9.5 26t24.5 11h91q-46 84 -46 146q0 72 53 123t136 51q106 0 168 -76q30 -35 30 -54q0 -16 -12.5 -28.5t-28.5 -12.5q-17 0 -38 29q-23 34 -49 51t-67 17q-50 0 -80.5 -31t-30.5 -78
q0 -55 47 -137h127q15 0 25 -11t10 -26t-10 -26t-25 -11h-107q10 -30 10 -74q0 -85 -89 -177h294q15 0 25 -11t10 -26t-10 -26t-25 -11h-365q-15 0 -25.5 11.5t-10.5 25.5q0 18 21 39z" />
    <glyph glyph-name="currency" unicode="&#xa4;" horiz-adv-x="617" 
d="M79 174l31 31q-50 59 -50 151t50 151l-31 31q-16 16 -16 30q0 13 9 23.5t23 10.5q18 0 34 -18l31 -30q62 51 149 51t149 -51l30 30q18 18 34 18q14 0 23 -10.5t9 -23.5q0 -14 -16 -30l-31 -31q50 -59 50 -151t-50 -151l31 -31q16 -16 16 -30q0 -13 -9 -23.5t-23 -10.5
q-16 0 -34 18l-30 30q-62 -51 -149 -51t-149 51l-31 -30q-16 -18 -34 -18q-14 0 -23 10.5t-9 23.5q0 14 16 30zM132 356q0 -76 51 -129.5t126 -53.5t125.5 53.5t50.5 129.5t-50.5 129.5t-125.5 53.5t-126 -53.5t-51 -129.5z" />
    <glyph glyph-name="yen" unicode="&#xa5;" horiz-adv-x="545" 
d="M91 255h141v24l-26 49h-115q-13 0 -21.5 9t-8.5 22t8.5 22t21.5 9h83l-132 254q-13 22 -13 38t12 25.5t30 9.5q25 0 38 -26l163 -331l163 331q13 26 40 26q18 0 29.5 -9.5t11.5 -25.5q0 -14 -12 -38l-133 -254h83q13 0 21.5 -9t8.5 -22t-8.5 -22t-21.5 -9h-116l-25 -49
v-24h141q13 0 21.5 -9t8.5 -22q0 -12 -9 -21.5t-21 -9.5h-141v-153q0 -46 -41 -46q-40 0 -40 46v153h-141q-13 0 -21.5 9.5t-8.5 21.5q0 13 8.5 22t21.5 9z" />
    <glyph glyph-name="brokenbar" unicode="&#xa6;" horiz-adv-x="266" 
d="M97 -48v283q0 15 10.5 24.5t25.5 9.5t25.5 -9.5t10.5 -23.5v-284q0 -14 -10.5 -23.5t-25.5 -9.5t-25.5 9.5t-10.5 23.5zM97 453v283q0 15 10.5 24.5t25.5 9.5t25.5 -9.5t10.5 -23.5v-283q0 -15 -10.5 -24.5t-25.5 -9.5t-25.5 9.5t-10.5 23.5z" />
    <glyph glyph-name="section" unicode="&#xa7;" horiz-adv-x="562" 
d="M88 307q0 69 49 127q-49 47 -49 116q0 80 57 125t151 45q60 0 112 -23t52 -50q0 -16 -10 -28t-27 -12q-10 0 -26 10t-42.5 20t-62.5 10q-53 0 -85.5 -27t-32.5 -69q0 -15 3.5 -28t13.5 -24.5t17 -19t25 -17.5t26.5 -14t32 -14.5t30.5 -13.5q82 -37 122 -79.5t40 -102.5
q0 -57 -57 -118q57 -47 58 -133q1 -77 -57.5 -126.5t-165.5 -49.5q-74 0 -130.5 28.5t-56.5 55.5q0 16 11 28t26 12q10 0 28.5 -12.5t50 -25.5t72.5 -13q68 0 102 29.5t34 72.5q0 50 -31 80t-112 65q-38 16 -63 30t-51.5 35t-40 49t-13.5 62zM298 197l61 -33l6.5 6.5t7 7.5
t6.5 7.5t7 9t5.5 9t4.5 10t2.5 10.5t1.5 12q0 31 -27 58.5t-92 57.5q-73 34 -76 35q-32 -41 -32 -80q0 -15 5 -27t20 -23.5t24 -17.5t37 -21t39 -21z" />
    <glyph glyph-name="dieresis" unicode="&#xa8;" horiz-adv-x="206" 
d="M-41 645q0 22 15.5 37t36.5 15q22 0 37 -15t15 -37q0 -21 -15 -36.5t-37 -15.5q-21 0 -36.5 15.5t-15.5 36.5zM143 645q0 22 15 37t37 15q21 0 36 -15t15 -37q0 -21 -15 -36.5t-36 -15.5q-22 0 -37 15.5t-15 36.5z" />
    <glyph glyph-name="copyright" unicode="&#xa9;" horiz-adv-x="802" 
d="M202 359q0 103 58 162t158 59q49 0 82.5 -14.5t33.5 -33.5q0 -14 -8.5 -24t-20.5 -10q-2 0 -26 11t-61 11q-68 0 -108 -43t-40 -118q0 -77 38.5 -119t102.5 -42q34 0 61 10.5t33 10.5q12 0 20.5 -8.5t8.5 -20.5t-9 -21q-14 -13 -46.5 -22t-67.5 -9q-97 0 -153 56t-56 165
zM46 358q0 149 104 255t251 106t251 -106t104 -255q0 -150 -104 -255.5t-251 -105.5t-251 105.5t-104 255.5zM113 356q0 -125 84 -213t203 -88t203.5 88t84.5 213t-84.5 213.5t-203.5 88.5t-203 -88.5t-84 -213.5z" />
    <glyph glyph-name="ordfeminine" unicode="&#xaa;" horiz-adv-x="362" 
d="M52 485q0 51 38 79.5t99 28.5q52 0 87 -8v13q0 32 -22.5 50.5t-63.5 18.5q-35 0 -60.5 -11.5t-30.5 -11.5q-27 0 -27 29q0 21 34 35t85 14q75 0 106.5 -34.5t31.5 -111.5v-166q0 -10 -7.5 -16.5t-19.5 -6.5q-27 0 -27 23v29q-33 -52 -109 -52q-46 0 -80 23.5t-34 74.5z
M110 491q0 -24 17 -37t47 -13q41 0 70.5 26.5t29.5 64.5q-27 10 -75 10q-89 0 -89 -51z" />
    <glyph glyph-name="guillemotleft" unicode="&#xab;" horiz-adv-x="422" 
d="M222 268l76 183q10 21 34 21q16 0 26.5 -9t10.5 -23q0 -12 -74 -172q72 -152 72 -168q0 -15 -11 -24.5t-27 -9.5q-24 0 -34 22zM48 268l76 183q10 21 34 21q16 0 26.5 -9t10.5 -23q0 -12 -74 -172q72 -152 72 -168q0 -15 -11 -24.5t-27 -9.5q-24 0 -34 22z" />
    <glyph glyph-name="logicalnot" unicode="&#xac;" 
d="M80 394h439q15 0 26 -11t11 -25v-217q0 -14 -10.5 -23.5t-25.5 -9.5t-25.5 9.5t-10.5 23.5v180h-404q-15 0 -24.5 11t-9.5 26t9.5 25.5t24.5 10.5z" />
    <glyph glyph-name="uni00AD" unicode="&#xad;" 
d="M521 239h-441q-15 0 -24.5 11t-9.5 26t9.5 25.5t24.5 10.5h441q15 0 24.5 -10.5t9.5 -25.5t-9.5 -26t-24.5 -11z" />
    <glyph glyph-name="registered" unicode="&#xae;" horiz-adv-x="802" 
d="M46 358q0 149 104 255t251 106t251 -106t104 -255q0 -150 -104 -255.5t-251 -105.5t-251 105.5t-104 255.5zM113 356q0 -125 84 -213t203 -88t203.5 88t84.5 213t-84.5 213.5t-203.5 88.5t-203 -88.5t-84 -213.5zM257 175v370q0 24 23 24h141q66 0 100.5 -35t34.5 -81
q0 -43 -23 -73.5t-66 -42.5l94 -143q7 -9 7 -19q0 -13 -10 -22t-24 -9q-20 0 -29 17l-107 169h-77v-155q-1 -13 -10 -22t-22 -9q-14 0 -23 9t-9 22zM322 514v-133h94q75 0 75 67q0 66 -75 66h-94z" />
    <glyph glyph-name="macron" unicode="&#xaf;" horiz-adv-x="206" 
d="M-3 678h211q16 0 27.5 -11.5t11.5 -27.5q0 -17 -11.5 -28t-27.5 -11h-211q-16 0 -27 11.5t-11 27.5t11 27.5t27 11.5z" />
    <glyph glyph-name="degree" unicode="&#xb0;" horiz-adv-x="400" 
d="M57 576q0 60 41.5 101.5t101.5 41.5t101.5 -41.5t41.5 -101.5t-41.5 -101.5t-101.5 -41.5t-101.5 41.5t-41.5 101.5zM107 576q0 -38 27.5 -65.5t65.5 -27.5t65.5 27.5t27.5 65.5t-27.5 65.5t-65.5 27.5t-65.5 -27.5t-27.5 -65.5z" />
    <glyph glyph-name="plusminus" unicode="&#xb1;" 
d="M264 146v129h-184q-15 0 -24.5 10.5t-9.5 25.5t9.5 25.5t24.5 10.5h184v131q0 15 10.5 24.5t25.5 9.5t25.5 -9.5t10.5 -24.5v-131h185q15 0 24.5 -10.5t9.5 -25.5t-9.5 -25.5t-24.5 -10.5h-185v-129q0 -15 -10.5 -24.5t-25.5 -9.5t-25.5 9.5t-10.5 24.5zM80 73h441
q15 0 24.5 -11t9.5 -26t-9.5 -25.5t-24.5 -10.5h-441q-15 0 -24.5 10.5t-9.5 25.5t9.5 26t24.5 11z" />
    <glyph glyph-name="twosuperior" unicode="&#xb2;" horiz-adv-x="352" 
d="M290 290h-215q-11 0 -19 8.5t-8 21.5q0 46 19.5 83t47 60.5t55 44t47 45t19.5 52.5q0 56 -64 56q-39 0 -75 -41q-14 -14 -30 -14q-11 0 -19.5 9.5t-8.5 20.5q0 17 21 38q46 46 113 46q63 0 97.5 -32t34.5 -82q0 -34 -19.5 -65t-46.5 -53.5t-54.5 -44t-47 -46t-19.5 -49.5
h172q12 0 19.5 -8t7.5 -20q0 -13 -7.5 -21.5t-19.5 -8.5z" />
    <glyph glyph-name="threesuperior" unicode="&#xb3;" horiz-adv-x="350" 
d="M165 285q-53 0 -92.5 18t-39.5 37q0 12 8 20.5t22 8.5q5 0 35.5 -14t66.5 -14q86 0 86 75q0 70 -103 70q-28 0 -28 27q0 26 28 26q32 0 56 19.5t24 53.5q0 49 -59 49q-30 0 -58 -13.5t-33 -13.5q-14 0 -21.5 9t-7.5 19q0 18 20 29q50 28 104 28q63 0 93 -28t30 -75
q0 -34 -21 -60t-53 -38q93 -25 93 -114q0 -54 -41.5 -86.5t-108.5 -32.5z" />
    <glyph glyph-name="acute" unicode="&#xb4;" horiz-adv-x="206" 
d="M65 674l150 59q2 2 13 2q16 0 27 -10.5t11 -26.5q0 -22 -23 -33l-152 -60q-9 -3 -17 -3q-15 0 -25 10t-10 25q0 27 26 37z" />
    <glyph glyph-name="mu" unicode="&#xb5;" horiz-adv-x="521" 
d="M64 -156v658q0 16 11.5 26.5t28.5 10.5t28.5 -10.5t11.5 -26.5v-306q0 -134 117 -134q116 0 116 134v306q0 16 11.5 26.5t28.5 10.5t28.5 -10.5t11.5 -26.5v-470q0 -17 -11.5 -27t-28.5 -10t-28 10t-11 27v40q-16 -33 -46.5 -55.5t-72.5 -22.5q-38 0 -65 13t-50 49v-212
q0 -16 -11.5 -26.5t-28.5 -10.5t-28.5 10.5t-11.5 26.5z" />
    <glyph glyph-name="mu" unicode="&#x3bc;" horiz-adv-x="521" 
d="M64 -156v658q0 16 11.5 26.5t28.5 10.5t28.5 -10.5t11.5 -26.5v-306q0 -134 117 -134q116 0 116 134v306q0 16 11.5 26.5t28.5 10.5t28.5 -10.5t11.5 -26.5v-470q0 -17 -11.5 -27t-28.5 -10t-28 10t-11 27v40q-16 -33 -46.5 -55.5t-72.5 -22.5q-38 0 -65 13t-50 49v-212
q0 -16 -11.5 -26.5t-28.5 -10.5t-28.5 10.5t-11.5 26.5z" />
    <glyph glyph-name="paragraph" unicode="&#xb6;" horiz-adv-x="602" 
d="M256 -43v380q-93 0 -152.5 52.5t-59.5 131.5q0 96 60.5 143.5t169.5 47.5h210q14 0 25 -10.5t11 -25.5v-719q0 -17 -10.5 -27.5t-25.5 -10.5q-16 0 -26 10.5t-10 27.5v692h-121v-692q0 -17 -10.5 -27.5t-25.5 -10.5t-25 10.5t-10 27.5z" />
    <glyph glyph-name="periodcentered" unicode="&#xb7;" horiz-adv-x="244" 
d="M66 314q0 22 17 39t39 17t38.5 -16.5t16.5 -39.5q0 -22 -16.5 -38.5t-38.5 -16.5q-23 0 -39.5 16.5t-16.5 38.5z" />
    <glyph glyph-name="cedilla" unicode="&#xb8;" horiz-adv-x="206" 
d="M90 10h48l-36 -50h26q29 0 46.5 -16.5t17.5 -40.5q0 -38 -29.5 -61t-74.5 -23q-77 0 -77 41q0 21 22 21q9 0 26.5 -6.5t34.5 -6.5q33 0 33 26t-45 26h-20q-16 0 -16 17q0 8 10 23z" />
    <glyph glyph-name="onesuperior" unicode="&#xb9;" horiz-adv-x="345" 
d="M59 352h105v278l-85 -65q-11 -9 -23 -9q-13 0 -22.5 9.5t-9.5 22.5q0 15 16 27l136 97q10 6 21 6q14 0 23 -8t9 -21v-337h73q12 0 20 -8.5t8 -20.5t-8 -21t-20 -9h-242q-12 0 -20 9t-8 21t8 20.5t19 8.5z" />
    <glyph glyph-name="ordmasculine" unicode="&#xba;" horiz-adv-x="349" 
d="M41 555q0 72 34 119.5t102 47.5t102 -47.5t34 -119.5q0 -76 -34 -121.5t-102 -45.5t-102 45.5t-34 121.5zM101 556q0 -46 18 -78.5t58 -32.5t58 32.5t18 78.5t-18 79t-58 33t-58 -33t-18 -79z" />
    <glyph glyph-name="guillemotright" unicode="&#xbb;" horiz-adv-x="422" 
d="M298 451l76 -183l-74 -180q-9 -22 -33 -22q-17 0 -27.5 9.5t-10.5 24.5t71 168q-74 162 -74 172q0 14 11 23t27 9q24 0 34 -21zM124 451l76 -183l-74 -180q-9 -22 -33 -22q-17 0 -27.5 9.5t-10.5 24.5t71 168q-74 162 -74 172q0 14 11 23t27 9q24 0 34 -21z" />
    <glyph glyph-name="onequarter" unicode="&#xbc;" horiz-adv-x="834" 
d="M814 124q0 -10 -7 -17.5t-18 -7.5h-34v-80q0 -12 -8.5 -19.5t-20.5 -7.5q-13 0 -21 7.5t-8 19.5v80h-167q-11 0 -19.5 8t-8.5 19q0 5 2 13l97 270q9 19 29 19q12 0 20.5 -7.5t8.5 -18.5q0 -2 -3 -14l-89 -237h130v123q0 11 8.5 18.5t20.5 7.5t20.5 -7.5t8.5 -18.5v-122
h34q10 0 17.5 -8.5t7.5 -19.5zM270 40l272 664q10 24 34 24q14 0 23 -8.5t9 -21.5q0 -6 -8 -25l-272 -663q-11 -26 -35 -26q-13 0 -22.5 8.5t-9.5 20.5q0 3 9 27zM54 352h105v278l-85 -65q-11 -9 -23 -9q-13 0 -22.5 9.5t-9.5 22.5q0 15 16 27l136 97q10 6 21 6q14 0 23 -8
t9 -21v-337h73q12 0 20 -8.5t8 -20.5t-8 -21t-20 -9h-242q-12 0 -20 9t-8 21t8 20.5t19 8.5z" />
    <glyph glyph-name="onehalf" unicode="&#xbd;" horiz-adv-x="839" 
d="M270 40l272 664q10 24 34 24q14 0 23 -8.5t9 -21.5q0 -6 -8 -25l-272 -663q-11 -26 -35 -26q-13 0 -22.5 8.5t-9.5 20.5q0 3 9 27zM54 352h105v278l-85 -65q-11 -9 -23 -9q-13 0 -22.5 9.5t-9.5 22.5q0 15 16 27l136 97q10 6 21 6q14 0 23 -8t9 -21v-337h73q12 0 20 -8.5
t8 -20.5t-8 -21t-20 -9h-242q-12 0 -20 9t-8 21t8 20.5t19 8.5zM777 -2h-215q-11 0 -19 8.5t-8 21.5q0 46 19.5 83t47 60.5t55 44t47 45t19.5 52.5q0 56 -64 56q-39 0 -75 -41q-14 -14 -30 -14q-11 0 -19.5 9.5t-8.5 20.5q0 17 21 38q46 46 113 46q63 0 97.5 -32t34.5 -82
q0 -34 -19.5 -65t-47 -53.5t-54.5 -44t-46.5 -46t-19.5 -49.5h172q12 0 19.5 -8t7.5 -20q0 -13 -7.5 -21.5t-19.5 -8.5z" />
    <glyph glyph-name="threequarters" unicode="&#xbe;" horiz-adv-x="806" 
d="M786 124q0 -10 -7 -17.5t-18 -7.5h-35v-80q0 -12 -8 -19.5t-20 -7.5q-13 0 -21 7.5t-8 19.5v80h-168q-11 0 -19 8.5t-8 18.5q0 5 2 13l97 270q8 19 28 19q12 0 20.5 -7.5t8.5 -18.5q0 -6 -2 -14l-90 -237h131v123q0 11 8 18.5t21 7.5q11 0 19.5 -7.5t8.5 -18.5v-122h35
q10 0 17.5 -8.5t7.5 -19.5zM240 40l272 664q10 24 34 24q14 0 23 -8.5t9 -21.5q0 -6 -8 -25l-272 -663q-11 -26 -35 -26q-13 0 -22.5 8.5t-9.5 20.5q0 3 9 27zM165 285q-53 0 -92.5 18t-39.5 37q0 12 8 20.5t22 8.5q5 0 35.5 -14t66.5 -14q86 0 86 75q0 70 -103 70
q-28 0 -28 27q0 26 28 26q32 0 56 19.5t24 53.5q0 49 -59 49q-30 0 -58 -13.5t-33 -13.5q-14 0 -21.5 9t-7.5 19q0 18 20 29q50 28 104 28q63 0 93 -28t30 -75q0 -34 -21 -60t-53 -38q93 -25 93 -114q0 -54 -41.5 -86.5t-108.5 -32.5z" />
    <glyph glyph-name="questiondown" unicode="&#xbf;" horiz-adv-x="416" 
d="M276 290v-134q0 -38 -40 -44q-126 -25 -126 -116q0 -51 30 -83t80 -32q71 0 117 68q20 29 41 29q15 0 26.5 -11.5t11.5 -24.5q0 -23 -27 -59q-59 -76 -171 -76q-84 0 -136 53t-52 135q0 143 166 184v111q0 16 12 28t28 12t28 -12t12 -28zM181 483q0 23 16.5 39.5
t39.5 16.5q22 0 38.5 -16.5t16.5 -39.5t-16 -39t-39 -16t-39.5 16.5t-16.5 38.5z" />
    <glyph glyph-name="Agrave" unicode="&#xc0;" horiz-adv-x="564" 
d="M472 19l-50 158h-279l-50 -158q-11 -25 -38 -25q-18 0 -30 10.5t-12 26.5q0 9 3 13l189 575q10 32 15.5 45.5t14 28.5t19.5 20t28 5q22 0 36 -12.5t21 -28.5t20 -57l189 -573q3 -12 3 -16q0 -17 -12 -27t-29 -10q-31 0 -38 25zM282 618l-116 -366h232zM220 900l149 -59
q26 -10 26 -37q0 -15 -10 -25t-25 -10q-8 0 -17 3l-151 60q-24 10 -24 33q0 16 11 26.5t27 10.5q11 0 14 -2z" />
    <glyph glyph-name="Aacute" unicode="&#xc1;" horiz-adv-x="564" 
d="M472 19l-50 158h-279l-50 -158q-11 -25 -38 -25q-18 0 -30 10.5t-12 26.5q0 9 3 13l189 575q10 32 15.5 45.5t14 28.5t19.5 20t28 5q22 0 36 -12.5t21 -28.5t20 -57l189 -573q3 -12 3 -16q0 -17 -12 -27t-29 -10q-31 0 -38 25zM282 618l-116 -366h232zM240 841l150 59
q2 2 13 2q16 0 27 -10.5t11 -26.5q0 -22 -23 -33l-152 -60q-9 -3 -17 -3q-15 0 -25 10t-10 25q0 27 26 37z" />
    <glyph glyph-name="Acircumflex" unicode="&#xc2;" horiz-adv-x="564" 
d="M472 19l-50 158h-279l-50 -158q-11 -25 -38 -25q-18 0 -30 10.5t-12 26.5q0 9 3 13l189 575q10 32 15.5 45.5t14 28.5t19.5 20t28 5q22 0 36 -12.5t21 -28.5t20 -57l189 -573q3 -12 3 -16q0 -17 -12 -27t-29 -10q-31 0 -38 25zM282 618l-116 -366h232zM282 890l139 -56
q23 -10 23 -34q0 -15 -10.5 -26t-25.5 -11q-13 0 -25 7l-101 46l-102 -46q-12 -7 -23 -7q-15 0 -26 11t-11 26q0 23 24 34z" />
    <glyph glyph-name="Atilde" unicode="&#xc3;" horiz-adv-x="564" 
d="M472 19l-50 158h-279l-50 -158q-11 -25 -38 -25q-18 0 -30 10.5t-12 26.5q0 9 3 13l189 575q10 32 15.5 45.5t14 28.5t19.5 20t28 5q22 0 36 -12.5t21 -28.5t20 -57l189 -573q3 -12 3 -16q0 -17 -12 -27t-29 -10q-31 0 -38 25zM282 618l-116 -366h232zM125 812
q0 27 27.5 50.5t59.5 23.5q23 0 66 -20.5t64 -20.5q14 0 32 16.5t30 16.5q33 0 33 -31q0 -26 -27.5 -50t-59.5 -24q-24 0 -67 20t-63 20q-15 0 -32.5 -15.5t-30.5 -15.5q-32 0 -32 30z" />
    <glyph glyph-name="Adieresis" unicode="&#xc4;" horiz-adv-x="564" 
d="M472 19l-50 158h-279l-50 -158q-11 -25 -38 -25q-18 0 -30 10.5t-12 26.5q0 9 3 13l189 575q10 32 15.5 45.5t14 28.5t19.5 20t28 5q22 0 36 -12.5t21 -28.5t20 -57l189 -573q3 -12 3 -16q0 -17 -12 -27t-29 -10q-31 0 -38 25zM282 618l-116 -366h232zM137 812
q0 22 15.5 37t36.5 15q22 0 37 -15t15 -37q0 -21 -15 -36.5t-37 -15.5q-21 0 -36.5 15.5t-15.5 36.5zM321 812q0 22 15 37t37 15q21 0 36 -15t15 -37q0 -21 -15 -36.5t-36 -15.5q-22 0 -37 15.5t-15 36.5z" />
    <glyph glyph-name="Aring" unicode="&#xc5;" horiz-adv-x="564" 
d="M472 19l-50 158h-279l-50 -158q-11 -25 -38 -25q-18 0 -30 10.5t-12 26.5q0 9 3 13l189 575q10 32 15.5 45.5t14 28.5t19.5 20t28 5q22 0 36 -12.5t21 -28.5t20 -57l189 -573q3 -12 3 -16q0 -17 -12 -27t-29 -10q-31 0 -38 25zM282 618l-116 -366h232zM187 845
q0 38 28 65.5t66 27.5t65.5 -27.5t27.5 -65.5q0 -39 -27.5 -66.5t-65.5 -27.5t-66 27.5t-28 66.5zM230 845q0 -21 15 -36t36 -15q20 0 35 15t15 36q0 20 -15 35t-35 15q-21 0 -36 -15t-15 -35z" />
    <glyph glyph-name="AE" unicode="&#xc6;" horiz-adv-x="778" 
d="M376 40v137h-216l-76 -156q-14 -27 -39 -27q-17 0 -28.5 12t-11.5 28q0 4 3 16l295 589q38 73 84 73h339q15 0 26 -11t11 -26q0 -16 -11 -26.5t-26 -10.5h-268v-246h195q15 0 26 -10.5t11 -26.5q0 -15 -11 -26t-26 -11h-196v-244h269q15 0 26 -11t11 -26t-11 -26t-26 -11
h-309q-17 0 -29 11.5t-12 28.5zM376 620l-180 -368h180v368z" />
    <glyph glyph-name="Ccedilla" unicode="&#xc7;" horiz-adv-x="541" 
d="M531 80q0 -26 -52 -52t-122 -33l-25 -35h26q29 0 46.5 -16.5t17.5 -40.5q0 -38 -29.5 -61t-74.5 -23q-77 0 -77 41q0 21 22 21q9 0 26.5 -6.5t34.5 -6.5q33 0 33 26t-45 26h-20q-16 0 -16 17q0 8 10 23l22 34q-139 4 -202 97t-63 265q0 363 292 363q77 0 136.5 -33
t59.5 -63q0 -15 -11 -27t-26 -12q-11 0 -30.5 15t-52.5 30.5t-78 15.5q-62 0 -104.5 -25.5t-62.5 -71t-27.5 -90.5t-7.5 -102q0 -289 193 -289q49 0 85.5 13t56.5 26t29 13q14 0 25 -12.5t11 -26.5z" />
    <glyph glyph-name="Egrave" unicode="&#xc8;" horiz-adv-x="475" 
d="M72 40v631q0 19 11.5 30t29.5 11h312q15 0 24.5 -11t9.5 -26q0 -16 -9.5 -26.5t-24.5 -10.5h-271v-246h198q15 0 24.5 -10.5t9.5 -26.5q0 -15 -9.5 -26t-24.5 -11h-199v-244h272q15 0 24.5 -11t9.5 -26t-9.5 -26t-24.5 -11h-312q-18 0 -29.5 11t-11.5 29zM176 900
l149 -59q26 -10 26 -37q0 -15 -10 -25t-25 -10q-8 0 -17 3l-151 60q-24 10 -24 33q0 16 11 26.5t27 10.5q11 0 14 -2z" />
    <glyph glyph-name="Eacute" unicode="&#xc9;" horiz-adv-x="475" 
d="M72 40v631q0 19 11.5 30t29.5 11h312q15 0 24.5 -11t9.5 -26q0 -16 -9.5 -26.5t-24.5 -10.5h-271v-246h198q15 0 24.5 -10.5t9.5 -26.5q0 -15 -9.5 -26t-24.5 -11h-199v-244h272q15 0 24.5 -11t9.5 -26t-9.5 -26t-24.5 -11h-312q-18 0 -29.5 11t-11.5 29zM196 841l150 59
q2 2 13 2q16 0 27 -10.5t11 -26.5q0 -22 -23 -33l-152 -60q-9 -3 -17 -3q-15 0 -25 10t-10 25q0 27 26 37z" />
    <glyph glyph-name="Ecircumflex" unicode="&#xca;" horiz-adv-x="475" 
d="M72 40v631q0 19 11.5 30t29.5 11h312q15 0 24.5 -11t9.5 -26q0 -16 -9.5 -26.5t-24.5 -10.5h-271v-246h198q15 0 24.5 -10.5t9.5 -26.5q0 -15 -9.5 -26t-24.5 -11h-199v-244h272q15 0 24.5 -11t9.5 -26t-9.5 -26t-24.5 -11h-312q-18 0 -29.5 11t-11.5 29zM270 890
l139 -56q23 -10 23 -34q0 -15 -10.5 -26t-25.5 -11q-13 0 -25 7l-101 46l-102 -46q-12 -7 -23 -7q-15 0 -26 11t-11 26q0 23 24 34z" />
    <glyph glyph-name="Edieresis" unicode="&#xcb;" horiz-adv-x="475" 
d="M72 40v631q0 19 11.5 30t29.5 11h312q15 0 24.5 -11t9.5 -26q0 -16 -9.5 -26.5t-24.5 -10.5h-271v-246h198q15 0 24.5 -10.5t9.5 -26.5q0 -15 -9.5 -26t-24.5 -11h-199v-244h272q15 0 24.5 -11t9.5 -26t-9.5 -26t-24.5 -11h-312q-18 0 -29.5 11t-11.5 29zM93 812
q0 22 15.5 37t36.5 15q22 0 37 -15t15 -37q0 -21 -15 -36.5t-37 -15.5q-21 0 -36.5 15.5t-15.5 36.5zM277 812q0 22 15 37t37 15q21 0 36 -15t15 -37q0 -21 -15 -36.5t-36 -15.5q-22 0 -37 15.5t-15 36.5z" />
    <glyph glyph-name="Igrave" unicode="&#xcc;" horiz-adv-x="353" 
d="M136 641h-62q-15 0 -25 10t-10 25t9.5 25.5t24.5 10.5h207q15 0 24.5 -10.5t9.5 -25.5t-9.5 -25t-24.5 -10h-63v-570h63q15 0 24.5 -10t9.5 -25t-9.5 -25.5t-24.5 -10.5h-207q-15 0 -24.5 10.5t-9.5 25.5t9.5 25t24.5 10h63v570zM115 900l149 -59q26 -10 26 -37
q0 -15 -10 -25t-25 -10q-8 0 -17 3l-151 60q-24 10 -24 33q0 16 11 26.5t27 10.5q11 0 14 -2z" />
    <glyph glyph-name="Iacute" unicode="&#xcd;" horiz-adv-x="353" 
d="M136 641h-62q-15 0 -25 10t-10 25t9.5 25.5t24.5 10.5h207q15 0 24.5 -10.5t9.5 -25.5t-9.5 -25t-24.5 -10h-63v-570h63q15 0 24.5 -10t9.5 -25t-9.5 -25.5t-24.5 -10.5h-207q-15 0 -24.5 10.5t-9.5 25.5t9.5 25t24.5 10h63v570zM135 841l150 59q2 2 13 2q16 0 27 -10.5
t11 -26.5q0 -22 -23 -33l-152 -60q-9 -3 -17 -3q-15 0 -25 10t-10 25q0 27 26 37z" />
    <glyph glyph-name="Icircumflex" unicode="&#xce;" horiz-adv-x="353" 
d="M136 641h-62q-15 0 -25 10t-10 25t9.5 25.5t24.5 10.5h207q15 0 24.5 -10.5t9.5 -25.5t-9.5 -25t-24.5 -10h-63v-570h63q15 0 24.5 -10t9.5 -25t-9.5 -25.5t-24.5 -10.5h-207q-15 0 -24.5 10.5t-9.5 25.5t9.5 25t24.5 10h63v570zM177 890l139 -56q23 -10 23 -34
q0 -15 -10.5 -26t-25.5 -11q-13 0 -25 7l-101 46l-102 -46q-12 -7 -23 -7q-15 0 -26 11t-11 26q0 23 24 34z" />
    <glyph glyph-name="Idieresis" unicode="&#xcf;" horiz-adv-x="353" 
d="M136 641h-62q-15 0 -25 10t-10 25t9.5 25.5t24.5 10.5h207q15 0 24.5 -10.5t9.5 -25.5t-9.5 -25t-24.5 -10h-63v-570h63q15 0 24.5 -10t9.5 -25t-9.5 -25.5t-24.5 -10.5h-207q-15 0 -24.5 10.5t-9.5 25.5t9.5 25t24.5 10h63v570zM33 812q0 22 15.5 37t36.5 15
q22 0 37 -15t15 -37q0 -21 -15 -36.5t-37 -15.5q-21 0 -36.5 15.5t-15.5 36.5zM217 812q0 22 15 37t37 15q21 0 36 -15t15 -37q0 -21 -15 -36.5t-36 -15.5q-22 0 -37 15.5t-15 36.5z" />
    <glyph glyph-name="Eth" unicode="&#xd0;" horiz-adv-x="630" 
d="M95 40v283h-64q-15 0 -25 10.5t-10 25.5t10 25.5t25 10.5h64v276q0 18 11 29.5t29 11.5h176q281 0 281 -360q0 -168 -70.5 -260t-215.5 -92h-171q-18 0 -29 11t-11 29zM176 638v-243h110q15 0 24.5 -10.5t9.5 -25.5t-9.5 -25.5t-24.5 -10.5h-110v-249h123q49 0 86 15
t59.5 40t36 63t18.5 79t5 93q0 274 -200 274h-128z" />
    <glyph glyph-name="Ntilde" unicode="&#xd1;" horiz-adv-x="631" 
d="M73 31v650q0 16 11 26t28 10q26 0 41 -23l324 -526v512q0 17 11.5 27t28.5 10q18 0 29.5 -10t11.5 -27v-648q0 -17 -11 -27.5t-28 -10.5q-26 0 -39 21l-326 531v-515q0 -16 -12 -26.5t-29 -10.5t-28.5 10.5t-11.5 26.5zM159 812q0 27 27.5 50.5t59.5 23.5q23 0 66 -20.5
t64 -20.5q14 0 32 16.5t30 16.5q33 0 33 -31q0 -26 -27.5 -50t-59.5 -24q-24 0 -67 20t-63 20q-15 0 -32.5 -15.5t-30.5 -15.5q-32 0 -32 30z" />
    <glyph glyph-name="Ograve" unicode="&#xd2;" horiz-adv-x="642" 
d="M321 -7q-278 0 -278 363q0 169 67 266t211 97t210.5 -97t66.5 -266q0 -175 -65.5 -269t-211.5 -94zM321 67q190 0 190 289t-190 289t-190 -289t190 -289zM259 900l149 -59q26 -10 26 -37q0 -15 -10 -25t-25 -10q-8 0 -17 3l-151 60q-24 10 -24 33q0 16 11 26.5t27 10.5
q11 0 14 -2z" />
    <glyph glyph-name="Oacute" unicode="&#xd3;" horiz-adv-x="642" 
d="M321 -7q-278 0 -278 363q0 169 67 266t211 97t210.5 -97t66.5 -266q0 -175 -65.5 -269t-211.5 -94zM321 67q190 0 190 289t-190 289t-190 -289t190 -289zM280 841l150 59q2 2 13 2q16 0 27 -10.5t11 -26.5q0 -22 -23 -33l-152 -60q-9 -3 -17 -3q-15 0 -25 10t-10 25
q0 27 26 37z" />
    <glyph glyph-name="Ocircumflex" unicode="&#xd4;" horiz-adv-x="642" 
d="M321 -7q-278 0 -278 363q0 169 67 266t211 97t210.5 -97t66.5 -266q0 -175 -65.5 -269t-211.5 -94zM321 67q190 0 190 289t-190 289t-190 -289t190 -289zM321 890l139 -56q23 -10 23 -34q0 -15 -10.5 -26t-25.5 -11q-13 0 -25 7l-101 46l-102 -46q-12 -7 -23 -7
q-15 0 -26 11t-11 26q0 23 24 34z" />
    <glyph glyph-name="Otilde" unicode="&#xd5;" horiz-adv-x="642" 
d="M321 -7q-278 0 -278 363q0 169 67 266t211 97t210.5 -97t66.5 -266q0 -175 -65.5 -269t-211.5 -94zM321 67q190 0 190 289t-190 289t-190 -289t190 -289zM165 812q0 27 27.5 50.5t59.5 23.5q23 0 66 -20.5t64 -20.5q14 0 32 16.5t30 16.5q33 0 33 -31q0 -26 -27.5 -50
t-59.5 -24q-24 0 -67 20t-63 20q-15 0 -32.5 -15.5t-30.5 -15.5q-32 0 -32 30z" />
    <glyph glyph-name="Odieresis" unicode="&#xd6;" horiz-adv-x="642" 
d="M321 -7q-278 0 -278 363q0 169 67 266t211 97t210.5 -97t66.5 -266q0 -175 -65.5 -269t-211.5 -94zM321 67q190 0 190 289t-190 289t-190 -289t190 -289zM177 812q0 22 15.5 37t36.5 15q22 0 37 -15t15 -37q0 -21 -15 -36.5t-37 -15.5q-21 0 -36.5 15.5t-15.5 36.5z
M361 812q0 22 15 37t37 15q21 0 36 -15t15 -37q0 -21 -15 -36.5t-36 -15.5q-22 0 -37 15.5t-15 36.5z" />
    <glyph glyph-name="multiply" unicode="&#xd7;" 
d="M68 59q0 14 16 30l165 167l-165 167q-16 15 -16 30q0 13 10 24t25 11q14 0 29 -15l168 -168l168 168q15 15 29 15q15 0 25 -11t10 -25t-16 -29l-166 -167l166 -167q16 -16 16 -30t-10 -24.5t-25 -10.5q-14 0 -29 15l-168 168l-168 -168q-15 -15 -29 -15q-15 0 -25 10.5
t-10 24.5z" />
    <glyph glyph-name="Oslash" unicode="&#xd8;" horiz-adv-x="640" 
d="M320 -7q-119 0 -186 64l-49 -60q-13 -15 -28 -15q-12 0 -21.5 9t-9.5 21q0 11 15 29l54 65q-53 89 -53 250q0 169 67 266t211 97q138 0 208 -94l75 91q14 16 27 16t22 -9.5t9 -22.5t-9 -22l-92 -110q37 -87 37 -212q0 -175 -65.5 -269t-211.5 -94zM130 356
q0 -111 26 -177l316 379q-48 87 -152 87q-190 0 -190 -289zM320 67q190 0 190 289q0 80 -14 135l-307 -369q45 -55 131 -55z" />
    <glyph glyph-name="Ugrave" unicode="&#xd9;" horiz-adv-x="612" 
d="M63 247v433q0 17 11.5 27t29.5 10q17 0 28.5 -10t11.5 -27v-425q0 -93 43 -139.5t119 -46.5t119 46.5t43 139.5v425q0 17 11.5 27t28.5 10q18 0 29.5 -10t11.5 -27v-433q0 -122 -65 -187.5t-178 -65.5t-178 65.5t-65 187.5zM244 900l149 -59q26 -10 26 -37q0 -15 -10 -25
t-25 -10q-8 0 -17 3l-151 60q-24 10 -24 33q0 16 11 26.5t27 10.5q11 0 14 -2z" />
    <glyph glyph-name="Uacute" unicode="&#xda;" horiz-adv-x="612" 
d="M63 247v433q0 17 11.5 27t29.5 10q17 0 28.5 -10t11.5 -27v-425q0 -93 43 -139.5t119 -46.5t119 46.5t43 139.5v425q0 17 11.5 27t28.5 10q18 0 29.5 -10t11.5 -27v-433q0 -122 -65 -187.5t-178 -65.5t-178 65.5t-65 187.5zM265 841l150 59q2 2 13 2q16 0 27 -10.5
t11 -26.5q0 -22 -23 -33l-152 -60q-9 -3 -17 -3q-15 0 -25 10t-10 25q0 27 26 37z" />
    <glyph glyph-name="Ucircumflex" unicode="&#xdb;" horiz-adv-x="612" 
d="M63 247v433q0 17 11.5 27t29.5 10q17 0 28.5 -10t11.5 -27v-425q0 -93 43 -139.5t119 -46.5t119 46.5t43 139.5v425q0 17 11.5 27t28.5 10q18 0 29.5 -10t11.5 -27v-433q0 -122 -65 -187.5t-178 -65.5t-178 65.5t-65 187.5zM306 890l139 -56q23 -10 23 -34
q0 -15 -10.5 -26t-25.5 -11q-13 0 -25 7l-101 46l-102 -46q-12 -7 -23 -7q-15 0 -26 11t-11 26q0 23 24 34z" />
    <glyph glyph-name="Udieresis" unicode="&#xdc;" horiz-adv-x="612" 
d="M63 247v433q0 17 11.5 27t29.5 10q17 0 28.5 -10t11.5 -27v-425q0 -93 43 -139.5t119 -46.5t119 46.5t43 139.5v425q0 17 11.5 27t28.5 10q18 0 29.5 -10t11.5 -27v-433q0 -122 -65 -187.5t-178 -65.5t-178 65.5t-65 187.5zM162 812q0 22 15.5 37t36.5 15q22 0 37 -15
t15 -37q0 -21 -15 -36.5t-37 -15.5q-21 0 -36.5 15.5t-15.5 36.5zM346 812q0 22 15 37t37 15q21 0 36 -15t15 -37q0 -21 -15 -36.5t-36 -15.5q-22 0 -37 15.5t-15 36.5z" />
    <glyph glyph-name="Yacute" unicode="&#xdd;" horiz-adv-x="493" 
d="M206 40v239l-190 365q-13 22 -13 38t12 25.5t30 9.5q25 0 38 -26l163 -331l163 331q13 26 40 26q18 0 29.5 -9.5t11.5 -25.5q0 -14 -12 -38l-191 -365v-239q0 -46 -41 -46q-40 0 -40 46zM205 841l150 59q2 2 13 2q16 0 27 -10.5t11 -26.5q0 -22 -23 -33l-152 -60
q-9 -3 -17 -3q-15 0 -25 10t-10 25q0 27 26 37z" />
    <glyph glyph-name="Thorn" unicode="&#xde;" horiz-adv-x="503" 
d="M72 31v649q0 17 11.5 27t29.5 10q17 0 28.5 -10t11.5 -27v-88h119q57 0 99.5 -20t66 -53t34.5 -69.5t11 -74.5q0 -99 -56 -163.5t-171 -64.5h-103v-116q0 -16 -11.5 -26.5t-28.5 -10.5t-29 10.5t-12 26.5zM153 221h105q76 0 110 43.5t34 104.5q0 62 -34.5 105.5
t-109.5 43.5h-105v-297z" />
    <glyph glyph-name="germandbls" unicode="&#xdf;" horiz-adv-x="546" 
d="M73 31v532q0 98 54 152.5t137 54.5q86 0 133.5 -53.5t47.5 -138.5q0 -117 -76 -156q135 -34 135 -204q0 -95 -50 -159.5t-140 -64.5q-59 0 -59 42q0 18 11 29t28 11q123 0 123 142q0 66 -31.5 108.5t-91.5 46.5q-46 8 -46 38t35 37q36 6 59 38.5t23 89.5q0 120 -101 120
q-59 0 -85 -40.5t-26 -103.5v-521q0 -16 -11.5 -26.5t-28.5 -10.5t-28.5 10.5t-11.5 26.5z" />
    <glyph glyph-name="agrave" unicode="&#xe0;" horiz-adv-x="496" 
d="M34 155q0 78 59 117t140 39q72 0 128 -14v21q0 148 -125 148q-38 0 -65 -9t-43 -18t-26 -9q-15 0 -24.5 11.5t-9.5 26.5q0 30 48 51t120 21q109 0 156 -56.5t47 -180.5v-272q0 -16 -12 -26.5t-29 -10.5t-28 10.5t-11 26.5v47q-48 -84 -158 -84q-70 0 -118.5 38t-48.5 123
zM120 155q0 -89 93 -89q60 0 102.5 46t42.5 117q-42 16 -110 16q-59 0 -93.5 -25t-34.5 -65zM182 733l149 -59q26 -10 26 -37q0 -15 -10 -25t-25 -10q-8 0 -17 3l-151 60q-24 11 -24 33q0 16 11 26.5t27 10.5q11 0 14 -2z" />
    <glyph glyph-name="aacute" unicode="&#xe1;" horiz-adv-x="496" 
d="M34 155q0 78 59 117t140 39q72 0 128 -14v21q0 148 -125 148q-38 0 -65 -9t-43 -18t-26 -9q-15 0 -24.5 11.5t-9.5 26.5q0 30 48 51t120 21q109 0 156 -56.5t47 -180.5v-272q0 -16 -12 -26.5t-29 -10.5t-28 10.5t-11 26.5v47q-48 -84 -158 -84q-70 0 -118.5 38t-48.5 123
zM120 155q0 -89 93 -89q60 0 102.5 46t42.5 117q-42 16 -110 16q-59 0 -93.5 -25t-34.5 -65zM158 674l150 59q2 2 13 2q16 0 27 -10.5t11 -26.5q0 -22 -23 -33l-152 -60q-9 -3 -17 -3q-15 0 -25 10t-10 25q0 27 26 37z" />
    <glyph glyph-name="acircumflex" unicode="&#xe2;" horiz-adv-x="496" 
d="M34 155q0 78 59 117t140 39q72 0 128 -14v21q0 148 -125 148q-38 0 -65 -9t-43 -18t-26 -9q-15 0 -24.5 11.5t-9.5 26.5q0 30 48 51t120 21q109 0 156 -56.5t47 -180.5v-272q0 -16 -12 -26.5t-29 -10.5t-28 10.5t-11 26.5v47q-48 -84 -158 -84q-70 0 -118.5 38t-48.5 123
zM120 155q0 -89 93 -89q60 0 102.5 46t42.5 117q-42 16 -110 16q-59 0 -93.5 -25t-34.5 -65zM246 723l139 -56q23 -10 23 -34q0 -15 -10.5 -26t-25.5 -11q-13 0 -25 7l-101 46l-102 -46q-12 -7 -23 -7q-15 0 -26 11t-11 26q0 23 24 34z" />
    <glyph glyph-name="atilde" unicode="&#xe3;" horiz-adv-x="496" 
d="M34 155q0 78 59 117t140 39q72 0 128 -14v21q0 148 -125 148q-38 0 -65 -9t-43 -18t-26 -9q-15 0 -24.5 11.5t-9.5 26.5q0 30 48 51t120 21q109 0 156 -56.5t47 -180.5v-272q0 -16 -12 -26.5t-29 -10.5t-28 10.5t-11 26.5v47q-48 -84 -158 -84q-70 0 -118.5 38t-48.5 123
zM120 155q0 -89 93 -89q60 0 102.5 46t42.5 117q-42 16 -110 16q-59 0 -93.5 -25t-34.5 -65zM91 645q0 27 27.5 50.5t59.5 23.5q23 0 66 -20.5t64 -20.5q14 0 32 16.5t30 16.5q33 0 33 -31q0 -26 -27.5 -50t-59.5 -24q-24 0 -67 20t-63 20q-15 0 -32.5 -15.5t-30.5 -15.5
q-32 0 -32 30z" />
    <glyph glyph-name="adieresis" unicode="&#xe4;" horiz-adv-x="496" 
d="M34 155q0 78 59 117t140 39q72 0 128 -14v21q0 148 -125 148q-38 0 -65 -9t-43 -18t-26 -9q-15 0 -24.5 11.5t-9.5 26.5q0 30 48 51t120 21q109 0 156 -56.5t47 -180.5v-272q0 -16 -12 -26.5t-29 -10.5t-28 10.5t-11 26.5v47q-48 -84 -158 -84q-70 0 -118.5 38t-48.5 123
zM120 155q0 -89 93 -89q60 0 102.5 46t42.5 117q-42 16 -110 16q-59 0 -93.5 -25t-34.5 -65zM105 645q0 22 15.5 37t36.5 15q22 0 37 -15t15 -37q0 -21 -15 -36.5t-37 -15.5q-21 0 -36.5 15.5t-15.5 36.5zM289 645q0 22 15 37t37 15q21 0 36 -15t15 -37q0 -21 -15 -36.5
t-36 -15.5q-22 0 -37 15.5t-15 36.5z" />
    <glyph glyph-name="aring" unicode="&#xe5;" horiz-adv-x="496" 
d="M34 155q0 78 59 117t140 39q72 0 128 -14v21q0 148 -125 148q-38 0 -65 -9t-43 -18t-26 -9q-15 0 -24.5 11.5t-9.5 26.5q0 30 48 51t120 21q109 0 156 -56.5t47 -180.5v-272q0 -16 -12 -26.5t-29 -10.5t-28 10.5t-11 26.5v47q-48 -84 -158 -84q-70 0 -118.5 38t-48.5 123
zM120 155q0 -89 93 -89q60 0 102.5 46t42.5 117q-42 16 -110 16q-59 0 -93.5 -25t-34.5 -65zM153 678q0 38 28 65.5t66 27.5t65.5 -27.5t27.5 -65.5q0 -39 -27.5 -66.5t-65.5 -27.5t-66 27.5t-28 66.5zM196 678q0 -21 15 -36t36 -15q20 0 35 15t15 36q0 20 -15 35t-35 15
q-21 0 -36 -15t-15 -35z" />
    <glyph glyph-name="ae" unicode="&#xe6;" horiz-adv-x="816" 
d="M34 155q0 78 59 117t140 39q72 0 128 -14v21q0 148 -125 148q-51 0 -89 -18t-46 -18q-15 0 -24.5 11.5t-9.5 26.5q0 30 48.5 51t120.5 21q127 0 167 -84q59 84 169 84q73 0 121.5 -38t68 -94.5t19.5 -127.5q0 -47 -41 -47h-301q16 -166 143 -166q48 0 88.5 14t45.5 14
q15 0 25 -11.5t10 -26.5q0 -19 -25 -31q-70 -32 -152 -32q-132 0 -187 104q-21 -46 -67.5 -75t-115.5 -29q-72 0 -121 38t-49 123zM439 297h257q-3 73 -33.5 121.5t-94.5 48.5q-59 0 -93 -50.5t-36 -119.5zM120 155q0 -89 93 -89q60 0 102.5 46t42.5 117q-42 16 -110 16
q-59 0 -93.5 -25t-34.5 -65z" />
    <glyph glyph-name="ccedilla" unicode="&#xe7;" horiz-adv-x="442" 
d="M38 267q0 118 57 195.5t173 77.5q60 0 102 -18.5t42 -41.5q0 -17 -10.5 -29.5t-25.5 -12.5q-3 0 -32.5 14t-75.5 14q-76 0 -110.5 -58t-34.5 -141q0 -82 33 -140.5t104 -58.5q42 0 75 13.5t41 13.5q15 0 25.5 -11.5t10.5 -26.5q0 -16 -12 -25q-16 -16 -56 -27t-85 -11h-2
l-24 -34h26q29 0 46.5 -16.5t17.5 -40.5q0 -38 -29.5 -61t-74.5 -23q-77 0 -77 41q0 21 22 21q9 0 26.5 -6.5t34.5 -6.5q33 0 33 26t-45 26h-20q-16 0 -16 17q0 8 10 23l26 38q-87 15 -131 86.5t-44 182.5z" />
    <glyph glyph-name="egrave" unicode="&#xe8;" horiz-adv-x="503" 
d="M38 267q0 118 55.5 195.5t164.5 77.5q107 0 158.5 -74.5t51.5 -185.5q0 -22 -11.5 -34.5t-30.5 -12.5h-301q16 -166 144 -166q48 0 88 14t45 14q15 0 25 -11.5t10 -26.5q0 -19 -25 -31q-70 -32 -152 -32q-111 0 -166.5 73.5t-55.5 199.5zM125 297h257q-3 73 -33.5 121.5
t-94.5 48.5q-59 0 -93 -51t-36 -119zM190 733l149 -59q26 -10 26 -37q0 -15 -10 -25t-25 -10q-8 0 -17 3l-151 60q-24 11 -24 33q0 16 11 26.5t27 10.5q11 0 14 -2z" />
    <glyph glyph-name="eacute" unicode="&#xe9;" horiz-adv-x="503" 
d="M38 267q0 118 55.5 195.5t164.5 77.5q107 0 158.5 -74.5t51.5 -185.5q0 -22 -11.5 -34.5t-30.5 -12.5h-301q16 -166 144 -166q48 0 88 14t45 14q15 0 25 -11.5t10 -26.5q0 -19 -25 -31q-70 -32 -152 -32q-111 0 -166.5 73.5t-55.5 199.5zM125 297h257q-3 73 -33.5 121.5
t-94.5 48.5q-59 0 -93 -51t-36 -119zM165 674l150 59q2 2 13 2q16 0 27 -10.5t11 -26.5q0 -22 -23 -33l-152 -60q-9 -3 -17 -3q-15 0 -25 10t-10 25q0 27 26 37z" />
    <glyph glyph-name="ecircumflex" unicode="&#xea;" horiz-adv-x="503" 
d="M38 267q0 118 55.5 195.5t164.5 77.5q107 0 158.5 -74.5t51.5 -185.5q0 -22 -11.5 -34.5t-30.5 -12.5h-301q16 -166 144 -166q48 0 88 14t45 14q15 0 25 -11.5t10 -26.5q0 -19 -25 -31q-70 -32 -152 -32q-111 0 -166.5 73.5t-55.5 199.5zM125 297h257q-3 73 -33.5 121.5
t-94.5 48.5q-59 0 -93 -51t-36 -119zM252 723l139 -56q23 -10 23 -34q0 -15 -10.5 -26t-25.5 -11q-13 0 -25 7l-101 46l-102 -46q-12 -7 -23 -7q-15 0 -26 11t-11 26q0 23 24 34z" />
    <glyph glyph-name="edieresis" unicode="&#xeb;" horiz-adv-x="503" 
d="M38 267q0 118 55.5 195.5t164.5 77.5q107 0 158.5 -74.5t51.5 -185.5q0 -22 -11.5 -34.5t-30.5 -12.5h-301q16 -166 144 -166q48 0 88 14t45 14q15 0 25 -11.5t10 -26.5q0 -19 -25 -31q-70 -32 -152 -32q-111 0 -166.5 73.5t-55.5 199.5zM125 297h257q-3 73 -33.5 121.5
t-94.5 48.5q-59 0 -93 -51t-36 -119zM108 645q0 22 15.5 37t36.5 15q22 0 37 -15t15 -37q0 -21 -15 -36.5t-37 -15.5q-21 0 -36.5 15.5t-15.5 36.5zM292 645q0 22 15 37t37 15q21 0 36 -15t15 -37q0 -21 -15 -36.5t-36 -15.5q-22 0 -37 15.5t-15 36.5z" />
    <glyph glyph-name="igrave" unicode="&#xec;" horiz-adv-x="220" 
d="M70 31v471q0 16 11.5 26.5t28.5 10.5t28.5 -10.5t11.5 -26.5v-471q0 -16 -11.5 -26.5t-28.5 -10.5t-28.5 10.5t-11.5 26.5zM48 733l149 -59q26 -10 26 -37q0 -15 -10 -25t-25 -10q-8 0 -17 3l-151 60q-24 11 -24 33q0 16 11 26.5t27 10.5q11 0 14 -2z" />
    <glyph glyph-name="iacute" unicode="&#xed;" horiz-adv-x="220" 
d="M70 31v471q0 16 11.5 26.5t28.5 10.5t28.5 -10.5t11.5 -26.5v-471q0 -16 -11.5 -26.5t-28.5 -10.5t-28.5 10.5t-11.5 26.5zM23 674l150 59q2 2 13 2q16 0 27 -10.5t11 -26.5q0 -22 -23 -33l-152 -60q-9 -3 -17 -3q-15 0 -25 10t-10 25q0 27 26 37z" />
    <glyph glyph-name="icircumflex" unicode="&#xee;" horiz-adv-x="220" 
d="M70 31v471q0 16 11.5 26.5t28.5 10.5t28.5 -10.5t11.5 -26.5v-471q0 -16 -11.5 -26.5t-28.5 -10.5t-28.5 10.5t-11.5 26.5zM110 723l139 -56q23 -10 23 -34q0 -15 -10.5 -26t-25.5 -11q-13 0 -25 7l-101 46l-102 -46q-12 -7 -23 -7q-15 0 -26 11t-11 26q0 23 24 34z" />
    <glyph glyph-name="idieresis" unicode="&#xef;" horiz-adv-x="220" 
d="M70 31v471q0 16 11.5 26.5t28.5 10.5t28.5 -10.5t11.5 -26.5v-471q0 -16 -11.5 -26.5t-28.5 -10.5t-28.5 10.5t-11.5 26.5zM-34 645q0 22 15.5 37t36.5 15q22 0 37 -15t15 -37q0 -21 -15 -36.5t-37 -15.5q-21 0 -36.5 15.5t-15.5 36.5zM150 645q0 22 15 37t37 15
q21 0 36 -15t15 -37q0 -21 -15 -36.5t-36 -15.5q-22 0 -37 15.5t-15 36.5z" />
    <glyph glyph-name="eth" unicode="&#xf0;" horiz-adv-x="520" 
d="M38 265q0 108 57 186.5t163 78.5q73 0 121 -61q-14 43 -46.5 91.5t-73.5 80.5l-97 -48q-15 -9 -26 -9q-10 0 -16 7.5t-6 17.5q0 16 22 27l83 42q-19 14 -45 25.5t-39 19.5t-13 21q0 11 9 18.5t26 7.5q44 0 131 -57l85 42q17 8 26 8q25 0 25 -25q0 -15 -18 -23l-74 -38
q150 -135 150 -381q0 -86 -20.5 -148t-55 -94t-70.5 -46t-76 -14q-72 0 -124 41.5t-75 101.5t-23 128zM123 265q0 -50 11.5 -92t44 -73.5t81.5 -31.5q38 0 65.5 17.5t42 47.5t21.5 63t7 69q0 37 -7 69.5t-21.5 62t-42 47t-65.5 18.5q-72 0 -104.5 -58.5t-32.5 -138.5z" />
    <glyph glyph-name="ntilde" unicode="&#xf1;" horiz-adv-x="526" 
d="M70 31v471q0 16 11.5 26.5t28.5 10.5t28 -10.5t11 -26.5v-49q48 87 149 87q71 0 118 -49.5t47 -140.5v-319q0 -16 -11.5 -26.5t-28.5 -10.5t-28.5 10.5t-11.5 26.5v317q0 55 -28 87t-77 32q-58 0 -93 -42.5t-35 -118.5v-275q0 -16 -11.5 -26.5t-28.5 -10.5t-28.5 10.5
t-11.5 26.5zM108 645q0 27 27.5 50.5t59.5 23.5q23 0 66 -20.5t64 -20.5q14 0 32 16.5t30 16.5q33 0 33 -31q0 -26 -27.5 -50t-59.5 -24q-24 0 -67 20t-63 20q-15 0 -32.5 -15.5t-30.5 -15.5q-32 0 -32 30z" />
    <glyph glyph-name="ograve" unicode="&#xf2;" horiz-adv-x="520" 
d="M38 267q0 76 22 135.5t73.5 98.5t126.5 39q111 0 166.5 -77.5t55.5 -195.5q0 -126 -55.5 -199.5t-166.5 -73.5t-166.5 74t-55.5 199zM123 267q0 -82 33 -140.5t104 -58.5t104 58.5t33 140.5t-33 140.5t-104 58.5t-104 -58.5t-33 -140.5zM198 733l149 -59q26 -10 26 -37
q0 -15 -10 -25t-25 -10q-8 0 -17 3l-151 60q-24 11 -24 33q0 16 11 26.5t27 10.5q11 0 14 -2z" />
    <glyph glyph-name="oacute" unicode="&#xf3;" horiz-adv-x="520" 
d="M38 267q0 76 22 135.5t73.5 98.5t126.5 39q111 0 166.5 -77.5t55.5 -195.5q0 -126 -55.5 -199.5t-166.5 -73.5t-166.5 74t-55.5 199zM123 267q0 -82 33 -140.5t104 -58.5t104 58.5t33 140.5t-33 140.5t-104 58.5t-104 -58.5t-33 -140.5zM172 674l150 59q2 2 13 2
q16 0 27 -10.5t11 -26.5q0 -22 -23 -33l-152 -60q-9 -3 -17 -3q-15 0 -25 10t-10 25q0 27 26 37z" />
    <glyph glyph-name="ocircumflex" unicode="&#xf4;" horiz-adv-x="520" 
d="M38 267q0 76 22 135.5t73.5 98.5t126.5 39q111 0 166.5 -77.5t55.5 -195.5q0 -126 -55.5 -199.5t-166.5 -73.5t-166.5 74t-55.5 199zM123 267q0 -82 33 -140.5t104 -58.5t104 58.5t33 140.5t-33 140.5t-104 58.5t-104 -58.5t-33 -140.5zM260 723l139 -56q23 -10 23 -34
q0 -15 -10.5 -26t-25.5 -11q-13 0 -25 7l-101 46l-102 -46q-12 -7 -23 -7q-15 0 -26 11t-11 26q0 23 24 34z" />
    <glyph glyph-name="otilde" unicode="&#xf5;" horiz-adv-x="520" 
d="M38 267q0 76 22 135.5t73.5 98.5t126.5 39q111 0 166.5 -77.5t55.5 -195.5q0 -126 -55.5 -199.5t-166.5 -73.5t-166.5 74t-55.5 199zM123 267q0 -82 33 -140.5t104 -58.5t104 58.5t33 140.5t-33 140.5t-104 58.5t-104 -58.5t-33 -140.5zM104 645q0 27 27.5 50.5
t59.5 23.5q23 0 66 -20.5t64 -20.5q14 0 32 16.5t30 16.5q33 0 33 -31q0 -26 -27.5 -50t-59.5 -24q-24 0 -67 20t-63 20q-15 0 -32.5 -15.5t-30.5 -15.5q-32 0 -32 30z" />
    <glyph glyph-name="odieresis" unicode="&#xf6;" horiz-adv-x="520" 
d="M38 267q0 76 22 135.5t73.5 98.5t126.5 39q111 0 166.5 -77.5t55.5 -195.5q0 -126 -55.5 -199.5t-166.5 -73.5t-166.5 74t-55.5 199zM123 267q0 -82 33 -140.5t104 -58.5t104 58.5t33 140.5t-33 140.5t-104 58.5t-104 -58.5t-33 -140.5zM116 645q0 22 15.5 37t36.5 15
q22 0 37 -15t15 -37q0 -21 -15 -36.5t-37 -15.5q-21 0 -36.5 15.5t-15.5 36.5zM300 645q0 22 15 37t37 15q21 0 36 -15t15 -37q0 -21 -15 -36.5t-36 -15.5q-22 0 -37 15.5t-15 36.5z" />
    <glyph glyph-name="divide" unicode="&#xf7;" 
d="M234 477q0 27 19 46.5t47 19.5q27 0 46.5 -19.5t19.5 -46.5q0 -28 -19.5 -47t-46.5 -19q-28 0 -47 19t-19 47zM234 75q0 27 19 46.5t47 19.5q27 0 46.5 -19.5t19.5 -46.5q0 -28 -19.5 -47t-46.5 -19q-28 0 -47 19t-19 47zM80 312h441q15 0 24.5 -10.5t9.5 -25.5t-9.5 -26
t-24.5 -11h-441q-15 0 -24.5 11t-9.5 26t9.5 25.5t24.5 10.5z" />
    <glyph glyph-name="oslash" unicode="&#xf8;" horiz-adv-x="520" 
d="M38 267q0 76 22 135.5t73.5 98.5t126.5 39q88 0 145 -54l48 57q12 16 25 16t22 -9.5t9 -21.5t-9 -21l-58 -69q40 -71 40 -171q0 -126 -55.5 -199.5t-166.5 -73.5q-89 0 -145 50l-38 -46q-12 -16 -28 -16q-11 0 -20.5 9t-9.5 21q0 5 1.5 8.5t3 5.5t5 6.5t5.5 6.5l43 52
q-39 66 -39 176zM123 267q0 -59 15 -103l215 259q-36 43 -93 43q-71 0 -104 -58.5t-33 -140.5zM397 267q0 53 -15 99l-213 -257q34 -41 91 -41q71 0 104 58.5t33 140.5z" />
    <glyph glyph-name="ugrave" unicode="&#xf9;" horiz-adv-x="515" 
d="M61 177v325q0 16 11.5 26.5t28.5 10.5t28.5 -10.5t11.5 -26.5v-306q0 -134 117 -134q116 0 116 134v306q0 16 11.5 26.5t28.5 10.5t28.5 -10.5t11.5 -26.5v-325q0 -87 -53.5 -135t-142.5 -48t-143 48t-54 135zM195 733l149 -59q26 -10 26 -37q0 -15 -10 -25t-25 -10
q-8 0 -17 3l-151 60q-24 11 -24 33q0 16 11 26.5t27 10.5q11 0 14 -2z" />
    <glyph glyph-name="uacute" unicode="&#xfa;" horiz-adv-x="515" 
d="M61 177v325q0 16 11.5 26.5t28.5 10.5t28.5 -10.5t11.5 -26.5v-306q0 -134 117 -134q116 0 116 134v306q0 16 11.5 26.5t28.5 10.5t28.5 -10.5t11.5 -26.5v-325q0 -87 -53.5 -135t-142.5 -48t-143 48t-54 135zM216 674l150 59q2 2 13 2q16 0 27 -10.5t11 -26.5
q0 -22 -23 -33l-152 -60q-9 -3 -17 -3q-15 0 -25 10t-10 25q0 27 26 37z" />
    <glyph glyph-name="ucircumflex" unicode="&#xfb;" horiz-adv-x="515" 
d="M61 177v325q0 16 11.5 26.5t28.5 10.5t28.5 -10.5t11.5 -26.5v-306q0 -134 117 -134q116 0 116 134v306q0 16 11.5 26.5t28.5 10.5t28.5 -10.5t11.5 -26.5v-325q0 -87 -53.5 -135t-142.5 -48t-143 48t-54 135zM257 723l139 -56q23 -10 23 -34q0 -15 -10.5 -26t-25.5 -11
q-13 0 -25 7l-101 46l-102 -46q-12 -7 -23 -7q-15 0 -26 11t-11 26q0 23 24 34z" />
    <glyph glyph-name="udieresis" unicode="&#xfc;" horiz-adv-x="515" 
d="M61 177v325q0 16 11.5 26.5t28.5 10.5t28.5 -10.5t11.5 -26.5v-306q0 -134 117 -134q116 0 116 134v306q0 16 11.5 26.5t28.5 10.5t28.5 -10.5t11.5 -26.5v-325q0 -87 -53.5 -135t-142.5 -48t-143 48t-54 135zM113 645q0 22 15.5 37t36.5 15q22 0 37 -15t15 -37
q0 -21 -15 -36.5t-37 -15.5q-21 0 -36.5 15.5t-15.5 36.5zM297 645q0 22 15 37t37 15q21 0 36 -15t15 -37q0 -21 -15 -36.5t-36 -15.5q-22 0 -37 15.5t-15 36.5z" />
    <glyph glyph-name="yacute" unicode="&#xfd;" horiz-adv-x="446" 
d="M181 33l-159 451q-4 14 -4 19q0 16 11.5 26t28.5 10q32 0 41 -28l124 -377l124 377q10 28 40 28q17 0 29 -10t12 -26q0 -7 -4 -19l-229 -651q-7 -26 -40 -26q-16 0 -27.5 10t-11.5 24q0 16 6 31zM182 674l150 59q2 2 13 2q16 0 27 -10.5t11 -26.5q0 -22 -23 -33l-152 -60
q-9 -3 -17 -3q-15 0 -25 10t-10 25q0 27 26 37z" />
    <glyph glyph-name="thorn" unicode="&#xfe;" horiz-adv-x="550" 
d="M511 267q1 -72 -21 -132t-74 -101t-128 -41q-90 0 -136 69v-218q0 -16 -11.5 -26.5t-28.5 -10.5t-28.5 10.5t-11.5 26.5v889q0 16 11.5 26.5t28.5 10.5t28 -10.5t11 -26.5v-294q40 101 150 101q104 0 156.5 -76.5t53.5 -196.5zM152 267q0 -51 13 -94.5t45 -74.5t79 -31
q69 0 103 59.5t34 140.5q0 80 -34 139t-103 59t-103 -59t-34 -139z" />
    <glyph glyph-name="ydieresis" unicode="&#xff;" horiz-adv-x="446" 
d="M181 33l-159 451q-4 14 -4 19q0 16 11.5 26t28.5 10q32 0 41 -28l124 -377l124 377q10 28 40 28q17 0 29 -10t12 -26q0 -7 -4 -19l-229 -651q-7 -26 -40 -26q-16 0 -27.5 10t-11.5 24q0 16 6 31zM79 645q0 22 15.5 37t36.5 15q22 0 37 -15t15 -37q0 -21 -15 -36.5
t-37 -15.5q-21 0 -36.5 15.5t-15.5 36.5zM263 645q0 22 15 37t37 15q21 0 36 -15t15 -37q0 -21 -15 -36.5t-36 -15.5q-22 0 -37 15.5t-15 36.5z" />
    <glyph glyph-name="dotlessi" unicode="&#x131;" horiz-adv-x="220" 
d="M70 31v471q0 16 11.5 26.5t28.5 10.5t28.5 -10.5t11.5 -26.5v-471q0 -16 -11.5 -26.5t-28.5 -10.5t-28.5 10.5t-11.5 26.5z" />
    <glyph glyph-name="Lslash" unicode="&#x141;" horiz-adv-x="441" 
d="M78 40v263l-32 -23q-13 -9 -24 -9q-13 0 -21 8t-8 21q0 16 13 25l72 53v302q0 17 11.5 27t29.5 10q17 0 28.5 -10t11.5 -27v-243l53 39q14 10 24 10q13 0 21.5 -8t8.5 -21q0 -16 -12 -25l-95 -70v-288h242q15 0 25 -11t10 -26t-10 -26t-25 -11h-282q-18 0 -29.5 11
t-11.5 29z" />
    <glyph glyph-name="lslash" unicode="&#x142;" horiz-adv-x="229" 
d="M74 31v282l-25 -21q-14 -11 -27 -11t-21 8t-8 21q0 16 12 26l69 58v339q0 16 11.5 26.5t28.5 10.5t28.5 -10.5t11.5 -26.5v-271l34 29q15 10 25 10q13 0 21.5 -8.5t8.5 -21.5q0 -12 -11 -23l-78 -67v-350q0 -16 -11.5 -26.5t-28.5 -10.5t-28.5 10.5t-11.5 26.5z" />
    <glyph glyph-name="OE" unicode="&#x152;" horiz-adv-x="919" 
d="M520 40v49q-57 -96 -199 -96q-278 0 -278 363q0 169 67 266t211 97q140 0 199 -102v54q0 19 11.5 30t29.5 11h309q15 0 24.5 -11t9.5 -26q0 -16 -9.5 -26.5t-24.5 -10.5h-271v-246h198q15 0 24.5 -10.5t9.5 -26.5q0 -15 -9.5 -26t-24.5 -11h-199v-244h272q15 0 24.5 -11
t9.5 -26t-9.5 -26t-24.5 -11h-309q-18 0 -29.5 11t-11.5 29zM321 67q190 0 190 289t-190 289t-190 -289t190 -289z" />
    <glyph glyph-name="oe" unicode="&#x153;" horiz-adv-x="860" 
d="M38 267q0 76 22 135.5t73.5 98.5t126.5 39q119 0 179 -96q59 96 177 96q73 0 121.5 -38t68 -94.5t19.5 -127.5q0 -47 -41 -47h-302q8 -78 41 -122t103 -44q48 0 88.5 14t44.5 14q15 0 25.5 -11.5t10.5 -26.5q0 -19 -25 -31q-70 -32 -152 -32q-123 0 -180 90
q-55 -90 -178 -90q-111 0 -166.5 74t-55.5 199zM123 267q0 -82 33 -140.5t104 -58.5t104 58.5t33 140.5t-33 140.5t-104 58.5t-104 -58.5t-33 -140.5zM482 297h257q-2 73 -32 121.5t-95 48.5q-59 0 -93.5 -50.5t-36.5 -119.5z" />
    <glyph glyph-name="Scaron" unicode="&#x160;" horiz-adv-x="468" 
d="M217 -7q-75 0 -132.5 29t-57.5 56q0 16 11 29t26 13q10 0 29 -13t51 -26.5t74 -13.5q68 0 101.5 35t33.5 86q0 53 -31 86t-110 67q-80 34 -126 79.5t-46 127.5q0 81 58 126t151 45q60 0 113.5 -23t53.5 -51q0 -16 -10.5 -29t-26.5 -13q-10 0 -26.5 10.5t-44 21
t-64.5 10.5q-53 0 -85 -27t-32 -69q0 -51 31 -79t98 -59q47 -21 75 -37.5t56 -41.5t41 -59t13 -78q0 -90 -58 -146t-166 -56zM234 763l-140 56q-22 8 -22 33q0 16 10 27t25 11q9 0 25 -7l102 -47l101 47q16 7 23 7q16 0 27 -11t11 -27q0 -23 -24 -33z" />
    <glyph glyph-name="scaron" unicode="&#x161;" horiz-adv-x="439" 
d="M213 -6q-43 0 -89 12t-71 29q-23 14 -23 32q0 17 11.5 29t28.5 12q7 0 52.5 -20.5t99.5 -20.5q48 0 71.5 21.5t23.5 57.5q0 32 -26.5 52t-98.5 51q-79 35 -112.5 70t-33.5 86q0 64 47 99.5t126 35.5q59 0 113.5 -22.5t54.5 -49.5q0 -15 -9.5 -26.5t-28.5 -11.5
q-10 0 -49 18t-82 18q-37 0 -62.5 -16t-25.5 -49q0 -20 19.5 -39.5t72.5 -42.5q98 -43 138 -77.5t40 -93.5q0 -71 -51.5 -112.5t-135.5 -41.5zM220 596l-140 56q-22 8 -22 33q0 16 10 27t25 11q9 0 25 -7l102 -47l101 47q16 7 23 7q16 0 27 -11t11 -27q0 -23 -24 -33z" />
    <glyph glyph-name="Ydieresis" unicode="&#x178;" horiz-adv-x="493" 
d="M206 40v239l-190 365q-13 22 -13 38t12 25.5t30 9.5q25 0 38 -26l163 -331l163 331q13 26 40 26q18 0 29.5 -9.5t11.5 -25.5q0 -14 -12 -38l-191 -365v-239q0 -46 -41 -46q-40 0 -40 46zM102 812q0 22 15.5 37t36.5 15q22 0 37 -15t15 -37q0 -21 -15 -36.5t-37 -15.5
q-21 0 -36.5 15.5t-15.5 36.5zM286 812q0 22 15 37t37 15q21 0 36 -15t15 -37q0 -21 -15 -36.5t-36 -15.5q-22 0 -37 15.5t-15 36.5z" />
    <glyph glyph-name="Zcaron" unicode="&#x17d;" horiz-adv-x="473" 
d="M419 0h-363q-15 0 -26 12t-11 27q0 12 14 36l311 563h-278q-16 0 -25.5 10.5t-9.5 26.5q0 15 10 26t25 11h340q15 0 26 -12t11 -27q0 -13 -13 -33l-313 -566h302q15 0 25 -11t10 -26t-10 -26t-25 -11zM236 763l-140 56q-22 8 -22 33q0 16 10 27t25 11q9 0 25 -7l102 -47
l101 47q16 7 23 7q16 0 27 -11t11 -27q0 -23 -24 -33z" />
    <glyph glyph-name="zcaron" unicode="&#x17e;" horiz-adv-x="443" 
d="M35 64l270 396h-228q-15 0 -24.5 10.5t-9.5 25.5q0 16 9.5 26.5t24.5 10.5h300q15 0 25 -11.5t10 -25.5t-6 -23l-272 -399h250q15 0 24.5 -11t9.5 -26t-9.5 -26t-24.5 -11h-322q-15 0 -25.5 11.5t-10.5 26.5q0 11 9 26zM221 596l-140 56q-22 8 -22 33q0 16 10 27t25 11
q9 0 25 -7l102 -47l101 47q16 7 23 7q16 0 27 -11t11 -27q0 -23 -24 -33z" />
    <glyph glyph-name="florin" unicode="&#x192;" horiz-adv-x="486" 
d="M23 -163q-20 1 -31 11t-11 25q0 16 11 25.5t30 9.5h24q35 1 57 27.5t35 103.5l65 378h-58q-34 0 -34 32q0 31 34 31h70l21 123q15 91 53 127.5t93 37.5h38q21 0 33 -10t12 -26t-11 -26t-29 -10h-30q-29 0 -49 -19.5t-29 -70.5l-23 -126h63q33 0 33 -31q0 -32 -33 -32h-75
l-66 -375q-21 -113 -62.5 -159t-104.5 -46h-26z" />
    <glyph glyph-name="circumflex" unicode="&#x2c6;" horiz-adv-x="206" 
d="M103 723l139 -56q23 -10 23 -34q0 -15 -10.5 -26t-25.5 -11q-13 0 -25 7l-101 46l-102 -46q-12 -7 -23 -7q-15 0 -26 11t-11 26q0 23 24 34z" />
    <glyph glyph-name="caron" unicode="&#x2c7;" horiz-adv-x="206" 
d="M103 596l-140 56q-22 8 -22 33q0 16 10 27t25 11q9 0 25 -7l102 -47l101 47q16 7 23 7q16 0 27 -11t11 -27q0 -23 -24 -33z" />
    <glyph glyph-name="uni02C9" unicode="&#x2c9;" horiz-adv-x="206" 
d="M6 600q-47 0 -47 39t47 39h193q48 0 48 -39t-48 -39h-193z" />
    <glyph glyph-name="breve" unicode="&#x2d8;" horiz-adv-x="206" 
d="M-43 689q0 16 11.5 27.5t27.5 11.5q12 0 20 -6.5t13.5 -15.5t12.5 -18t22.5 -15.5t38.5 -6.5q28 0 45.5 9.5t23 21.5t15 21.5t23.5 9.5q16 0 27 -11.5t11 -27.5q0 -38 -41 -65.5t-104 -27.5q-64 0 -105 27.5t-41 65.5z" />
    <glyph glyph-name="dotaccent" unicode="&#x2d9;" horiz-adv-x="206" 
d="M51 645q0 22 15 37t37 15q21 0 36.5 -15t15.5 -37q0 -21 -15.5 -36.5t-36.5 -15.5q-22 0 -37 15.5t-15 36.5z" />
    <glyph glyph-name="ring" unicode="&#x2da;" horiz-adv-x="206" 
d="M9 678q0 38 28 65.5t66 27.5t65.5 -27.5t27.5 -65.5q0 -39 -27.5 -66.5t-65.5 -27.5t-66 27.5t-28 66.5zM52 678q0 -21 15 -36t36 -15q20 0 35 15t15 36q0 20 -15 35t-35 15q-21 0 -36 -15t-15 -35z" />
    <glyph glyph-name="ogonek" unicode="&#x2db;" horiz-adv-x="206" 
d="M90 10h54q-89 -75 -89 -107q0 -28 29 -28q11 0 26 5t24 5q24 0 24 -25q0 -18 -26 -29.5t-63 -11.5q-84 0 -84 66q0 37 31 70.5t74 54.5z" />
    <glyph glyph-name="tilde" unicode="&#x2dc;" horiz-adv-x="206" 
d="M-53 645q0 27 27.5 50.5t59.5 23.5q23 0 66 -20.5t64 -20.5q14 0 32 16.5t30 16.5q33 0 33 -31q0 -26 -27.5 -50t-59.5 -24q-24 0 -67 20t-63 20q-15 0 -32.5 -15.5t-30.5 -15.5q-32 0 -32 30z" />
    <glyph glyph-name="hungarumlaut" unicode="&#x2dd;" horiz-adv-x="206" 
d="M-102 669l140 84q9 6 20 6q15 0 26 -11t11 -27q0 -19 -18 -30l-140 -84q-9 -6 -21 -6q-15 0 -25.5 10t-10.5 25q0 21 18 33zM119 669l140 84q9 6 20 6q16 0 26.5 -11t10.5 -27q0 -19 -18 -30l-139 -84q-10 -6 -22 -6q-15 0 -25.5 10t-10.5 25q0 21 18 33z" />
    <glyph glyph-name="pi" unicode="&#x3c0;" horiz-adv-x="558" 
d="M511 454h-51v-307q0 -40 4.5 -75.5t4.5 -39.5q0 -38 -39 -38q-34 0 -39 30q-10 37 -10 116v314h-173q-4 -105 -21 -231.5t-41 -197.5q-9 -31 -41 -31q-17 0 -27.5 10t-10.5 25q0 2 16 55q17 59 31.5 166t15.5 204q-30 0 -56.5 -3.5t-31.5 -3.5q-12 0 -19.5 8t-7.5 19
q0 24 19 30q45 17 119 17h359q13 0 22 -10t9 -24t-9 -23.5t-23 -9.5z" />
    <glyph glyph-name="endash" unicode="&#x2013;" horiz-adv-x="500" 
d="M49 304h402q15 0 24.5 -10.5t9.5 -25.5t-9.5 -25.5t-24.5 -10.5h-402q-15 0 -24.5 10.5t-9.5 25.5t9.5 25.5t24.5 10.5z" />
    <glyph glyph-name="emdash" unicode="&#x2014;" horiz-adv-x="1000" 
d="M49 304h902q15 0 24.5 -10.5t9.5 -25.5t-9.5 -25.5t-24.5 -10.5h-902q-15 0 -24.5 10.5t-9.5 25.5t9.5 25.5t24.5 10.5z" />
    <glyph glyph-name="quoteleft" unicode="&#x2018;" horiz-adv-x="181" 
d="M27 616l64 123q14 30 41 30q18 0 31 -12t13 -28q0 -17 -13 -39l-58 -109q-16 -32 -40 -32q-19 0 -32.5 12t-13.5 29q0 12 8 26z" />
    <glyph glyph-name="quoteright" unicode="&#x2019;" horiz-adv-x="181" 
d="M27 616l64 123q14 30 41 30q18 0 31 -12t13 -28q0 -17 -13 -39l-58 -109q-16 -32 -40 -32q-19 0 -32.5 12t-13.5 29q0 12 8 26z" />
    <glyph glyph-name="quotesinglbase" unicode="&#x201a;" horiz-adv-x="244" 
d="M27 -60l64 123q14 30 41 30q18 0 31 -12t13 -28q0 -17 -13 -39l-58 -109q-16 -32 -40 -32q-19 0 -32.5 12t-13.5 29q0 12 8 26z" />
    <glyph glyph-name="quotedblleft" unicode="&#x201c;" horiz-adv-x="324" 
d="M170 617l64 123q14 30 41 30q18 0 31 -12t13 -28q0 -17 -13 -39l-58 -109q-16 -32 -40 -32q-19 0 -32.5 12t-13.5 29q0 12 8 26zM27 617l64 123q14 30 41 30q18 0 31 -12t13 -28q0 -17 -13 -39l-58 -109q-16 -32 -40 -32q-19 0 -32.5 12t-13.5 29q0 12 8 26z" />
    <glyph glyph-name="quotedblright" unicode="&#x201d;" horiz-adv-x="324" 
d="M170 617l64 123q14 30 41 30q18 0 31 -12t13 -28q0 -17 -13 -39l-58 -109q-16 -32 -40 -32q-19 0 -32.5 12t-13.5 29q0 12 8 26zM27 617l64 123q14 30 41 30q18 0 31 -12t13 -28q0 -17 -13 -39l-58 -109q-16 -32 -40 -32q-19 0 -32.5 12t-13.5 29q0 12 8 26z" />
    <glyph glyph-name="quotedblbase" unicode="&#x201e;" horiz-adv-x="332" 
d="M164 -60l64 123q14 30 41 30q18 0 31 -12t13 -28q0 -17 -13 -39l-58 -109q-16 -32 -40 -32q-19 0 -32.5 12t-13.5 29q0 12 8 26zM27 -60l64 123q14 30 41 30q18 0 31 -12t13 -28q0 -17 -13 -39l-58 -109q-16 -32 -40 -32q-19 0 -32.5 12t-13.5 29q0 12 8 26z" />
    <glyph glyph-name="dagger" unicode="&#x2020;" horiz-adv-x="606" 
d="M267 -159v547h-207q-14 0 -23.5 10.5t-9.5 25.5q0 14 9.5 24.5t23.5 10.5h207v224q0 15 10.5 24.5t25.5 9.5t26 -9.5t11 -24.5v-224h206q14 0 23.5 -10.5t9.5 -24.5q0 -15 -9.5 -25.5t-23.5 -10.5h-206v-547q0 -15 -11 -24.5t-26 -9.5t-25.5 9.5t-10.5 24.5z" />
    <glyph glyph-name="daggerdbl" unicode="&#x2021;" horiz-adv-x="606" 
d="M546 44h-206v-203q0 -15 -11 -24.5t-26 -9.5t-25.5 9.5t-10.5 24.5v203h-207q-14 0 -23.5 10.5t-9.5 24.5t9.5 24.5t23.5 10.5h207v299h-207q-14 0 -23.5 10.5t-9.5 25.5q0 14 9.5 24.5t23.5 10.5h207v199q0 15 10.5 24.5t25.5 9.5t26 -9.5t11 -24.5v-199h206
q14 0 23.5 -10.5t9.5 -24.5q0 -15 -9.5 -25.5t-23.5 -10.5h-206v-299h206q14 0 23.5 -10.5t9.5 -24.5t-9.5 -24.5t-23.5 -10.5z" />
    <glyph glyph-name="bullet" unicode="&#x2022;" horiz-adv-x="500" 
d="M72 356q0 74 52 126t126 52t126 -52t52 -126t-52 -126t-126 -52t-126 52t-52 126z" />
    <glyph glyph-name="ellipsis" unicode="&#x2026;" horiz-adv-x="1000" 
d="M770 48q0 22 17 39t39 17t38.5 -16.5t16.5 -39.5q0 -22 -16.5 -38.5t-38.5 -16.5q-23 0 -39.5 16.5t-16.5 38.5zM444 48q0 22 17 39t39 17t38.5 -16.5t16.5 -39.5q0 -22 -16.5 -38.5t-38.5 -16.5q-23 0 -39.5 16.5t-16.5 38.5zM117 48q0 23 16.5 39.5t38.5 16.5t39 -17
t17 -39t-16.5 -38.5t-39.5 -16.5q-22 0 -38.5 16.5t-16.5 38.5z" />
    <glyph glyph-name="perthousand" unicode="&#x2030;" horiz-adv-x="1087" 
d="M192 375q-64 0 -109 48t-45 121q0 76 46 125.5t108 49.5t108 -49.5t46 -125.5q0 -73 -45.5 -121t-108.5 -48zM543 -7q-63 0 -108.5 48t-45.5 120q0 77 46 126.5t108 49.5t108.5 -49.5t46.5 -126.5q0 -72 -45.5 -120t-109.5 -48zM543 58q38 0 58.5 31t20.5 71q0 48 -21 78
t-58 30t-58 -30t-21 -78q0 -40 20.5 -71t58.5 -31zM192 442q38 0 58.5 30.5t20.5 71.5q0 47 -21.5 77.5t-57.5 30.5q-37 0 -58.5 -30t-21.5 -78q0 -41 20.5 -71.5t59.5 -30.5zM896 -7q-63 0 -108.5 48t-45.5 120q0 77 46 126.5t108 49.5t108 -49.5t46 -126.5
q0 -72 -45.5 -120t-108.5 -48zM896 58q38 0 58.5 31t20.5 71q0 47 -21.5 77.5t-57.5 30.5q-37 0 -58.5 -30t-21.5 -78q0 -41 20.5 -71.5t59.5 -30.5zM202 40l272 664q10 24 34 24q14 0 23 -8.5t9 -21.5q0 -6 -8 -25l-272 -663q-11 -26 -35 -26q-13 0 -22.5 8.5t-9.5 20.5
q0 3 9 27z" />
    <glyph glyph-name="guilsinglleft" unicode="&#x2039;" horiz-adv-x="248" 
d="M48 268l76 183q10 21 34 21q16 0 26.5 -9t10.5 -23q0 -12 -74 -172q72 -152 72 -168q0 -15 -11 -24.5t-27 -9.5q-24 0 -34 22z" />
    <glyph glyph-name="guilsinglright" unicode="&#x203a;" horiz-adv-x="248" 
d="M124 451l76 -183l-74 -180q-9 -22 -33 -22q-17 0 -27.5 9.5t-10.5 24.5t71 168q-74 162 -74 172q0 14 11 23t27 9q24 0 34 -21z" />
    <glyph glyph-name="fraction" unicode="&#x2044;" horiz-adv-x="166" 
d="M-82 40l272 664q10 24 34 24q14 0 23 -8.5t9 -21.5q0 -6 -8 -25l-272 -663q-11 -26 -35 -26q-13 0 -22.5 8.5t-9.5 20.5q0 3 9 27z" />
    <glyph glyph-name="Euro" unicode="&#x20ac;" horiz-adv-x="545" 
d="M56 320h29q-1 12 -1 36q0 25 1 37h-29q-13 0 -21.5 8.5t-8.5 21.5q0 14 8.5 23t21.5 9h35q18 126 85 195t184 69q72 0 122 -24.5t50 -50.5q0 -15 -11 -27.5t-26 -12.5q-11 0 -26.5 10t-42 20.5t-64.5 10.5q-155 0 -185 -190h240q13 0 21.5 -9t8.5 -23q0 -13 -8.5 -21.5
t-21.5 -8.5h-245q-1 -13 -1 -37t1 -36h200q13 0 21.5 -9t8.5 -21q0 -14 -8.5 -23t-21.5 -9h-195q28 -190 183 -190q41 0 69 13t43 25.5t25 12.5q14 0 25 -12t11 -27q0 -30 -55 -58t-118 -28q-233 0 -270 264h-34q-13 0 -21.5 9t-8.5 23q0 12 8.5 21t21.5 9z" />
    <glyph glyph-name="afii61289" unicode="&#x2113;" horiz-adv-x="480" 
d="M108 195l-56 -46q-6 -6 -16 -6q-8 0 -14.5 6.5t-6.5 17.5q0 13 14 27q57 47 78 69v272q0 126 44 183.5t110 57.5q71 0 104 -45t33 -119q0 -168 -217 -365v-34q0 -77 30.5 -115t76.5 -38q78 0 132 95q5 13 18 13q8 0 15.5 -7t7.5 -19q0 -9 -4 -19q-65 -125 -185 -125
q-80 0 -120 51.5t-44 132.5v13zM181 540v-215q149 165 149 288q0 105 -68 105q-33 0 -57 -43t-24 -135z" />
    <glyph glyph-name="trademark" unicode="&#x2122;" horiz-adv-x="904" 
d="M190 649h-98q-13 0 -21.5 9t-8.5 22t8.5 22.5t21.5 9.5h268q12 0 20.5 -9.5t8.5 -22.5t-8 -22t-21 -9h-99v-318q0 -14 -10.5 -23t-24.5 -9q-15 0 -25.5 9t-10.5 23v318zM794 659l49 -300q1 -8 1.5 -14t1 -8.5t0.5 -4.5q0 -14 -11 -23.5t-25 -9.5t-24 8t-12 19l-38 282
l-66 -262q-11 -44 -44 -44t-44 44l-66 263l-37 -283q-5 -27 -36 -27q-16 0 -26.5 9t-10.5 22q0 2 0.5 7t0.5 7l51 315q5 30 17 43t38 13q23 0 34.5 -13.5t18.5 -43.5l62 -248l58 248q13 57 54 57q26 0 37.5 -12.5t16.5 -43.5z" />
    <glyph glyph-name="Omega" unicode="&#x2126;" horiz-adv-x="677" 
d="M590 0q-186 0 -188 -1q-46 4 -46 36q0 29 33 36q43 9 73 41t43.5 78t18.5 85t5 81q0 289 -190 289t-190 -289q0 -246 133 -284q35 -10 35 -37q-1 -17 -9 -26t-28 -9h-194q-14 0 -23.5 10.5t-9.5 25.5q0 14 9.5 24.5t23.5 10.5h84q-108 84 -108 285q0 169 66.5 266
t210.5 97t210.5 -97t66.5 -266q0 -200 -103 -285h77q15 0 24.5 -10t9.5 -25t-9.5 -25.5t-24.5 -10.5z" />
    <glyph glyph-name="estimated" unicode="&#x212e;" horiz-adv-x="875" 
d="M840 346h-653q-5 0 -5 -4v-198q0 -13 8 -23q105 -107 247 -107q76 0 144 32t117 88h57q-54 -65 -138 -102.5t-181 -37.5q-166 0 -284 105.5t-118 255.5q0 151 118 257.5t284 106.5q168 0 286 -106.5t118 -257.5v-9zM692 372v199q0 14 -9 23q-106 103 -246 103
q-141 0 -245 -106q-10 -9 -10 -25v-194q0 -7 5 -7h501q4 0 4 7z" />
    <glyph glyph-name="partialdiff" unicode="&#x2202;" horiz-adv-x="539" 
d="M101 678q-10 -7 -22 -7q-10 0 -17.5 8.5t-7.5 22.5q0 20 19 33q78 55 166 56q104 1 177.5 -97.5t73.5 -281.5q0 -185 -67.5 -299.5t-190.5 -114.5q-91 0 -140.5 68.5t-49.5 162.5q0 114 61.5 185t147.5 71q59 0 101 -30.5t59 -62.5h1q1 12 1 43q0 127 -53 208.5
t-130 81.5q-28 0 -53.5 -8t-39 -15.5t-36.5 -23.5zM238 62h1q66 0 110 73.5t54 179.5q-13 40 -51 73.5t-89 33.5q-59 0 -101.5 -57t-42.5 -137q0 -73 33 -119.5t86 -46.5z" />
    <glyph glyph-name="Delta" unicode="&#x2206;" horiz-adv-x="635" 
d="M586 37q0 -17 -12 -27t-29 -10h-452q-19 0 -31.5 9.5t-12.5 27.5q0 7 2 13l192 579q18 53 32 71t42 18q29 0 43.5 -18t31.5 -71l191 -576q3 -12 3 -16zM317 617l-175 -546h350z" />
    <glyph glyph-name="product" unicode="&#x220f;" horiz-adv-x="688" 
d="M474 638h-261v-697q0 -16 -12 -26.5t-29 -10.5t-28.5 10.5t-11.5 26.5v697h-90q-15 0 -25 10.5t-10 26.5q0 15 10 26t25 11h604q15 0 24.5 -11t9.5 -26q0 -16 -9.5 -26.5t-24.5 -10.5h-91v-697q0 -16 -11.5 -26.5t-28.5 -10.5t-29 10.5t-12 26.5v697z" />
    <glyph glyph-name="summation" unicode="&#x2211;" horiz-adv-x="545" 
d="M484 -93h-432q-14 0 -25 11t-11 25q0 11 7 21l262 344l-251 344q-9 14 -9 24q0 15 11 25.5t25 10.5h422q14 0 23.5 -10.5t9.5 -25.5t-9.5 -25.5t-23.5 -10.5h-342l216 -309q8 -16 8 -23q0 -10 -8 -22l-232 -307h359q14 0 24 -10.5t10 -25.5q0 -14 -10 -25t-24 -11z" />
    <glyph glyph-name="minus" unicode="&#x2212;" 
d="M521 239h-441q-15 0 -24.5 11t-9.5 26t9.5 25.5t24.5 10.5h441q15 0 24.5 -10.5t9.5 -25.5t-9.5 -26t-24.5 -11z" />
    <glyph glyph-name="uni2215" unicode="&#x2215;" horiz-adv-x="166" 
d="M-82 40l272 664q10 24 34 24q14 0 23 -8.5t9 -21.5q0 -6 -8 -25l-272 -663q-11 -26 -35 -26q-13 0 -22.5 8.5t-9.5 20.5q0 3 9 27z" />
    <glyph glyph-name="uni2219" unicode="&#x2219;" horiz-adv-x="244" 
d="M66 314q0 22 17 39t39 17t38.5 -16.5t16.5 -39.5q0 -22 -16.5 -38.5t-38.5 -16.5q-23 0 -39.5 16.5t-16.5 38.5z" />
    <glyph glyph-name="radical" unicode="&#x221a;" horiz-adv-x="565" 
d="M565 832l-218 -982h-68l-157 464l-73 -28l-16 47l137 54l124 -369q14 -53 17 -73h2q1 10 6 37.5t6 36.5l182 813h58z" />
    <glyph glyph-name="infinity" unicode="&#x221e;" horiz-adv-x="772" 
d="M717 297q0 -75 -47.5 -121.5t-113.5 -46.5q-44 0 -84.5 24.5t-91.5 79.5q-46 -51 -86.5 -77.5t-94.5 -26.5q-65 0 -112 47t-47 116q0 72 47 119t118 47q87 0 179 -108q31 35 51.5 54.5t55.5 36.5t73 17q69 0 111 -44.5t42 -116.5zM334 290q-35 45 -65.5 69t-68.5 24
q-36 0 -58 -26.5t-22 -64.5q0 -37 23.5 -62.5t61.5 -25.5q34 0 62.5 21.5t66.5 64.5zM428 295q42 -47 72 -69t60 -22q36 0 58 27t22 62q0 42 -23 66.5t-58 24.5q-22 0 -48 -16t-40 -29.5t-43 -43.5z" />
    <glyph glyph-name="integral" unicode="&#x222b;" horiz-adv-x="355" 
d="M-5 -119q0 13 8 21.5t18 8.5q7 0 21.5 -6t28.5 -6q79 0 79 194q0 82 -6.5 246t-6.5 237q0 139 28 202.5t97 75.5q12 3 27 1q24 -1 45 -11t21 -28q0 -11 -7.5 -19t-18.5 -8q-5 0 -16 4.5t-23 4.5q-43 0 -63 -47.5t-20 -155.5q0 -76 7 -237t7 -237q0 -154 -35 -218.5
t-107 -64.5q-35 0 -59.5 12t-24.5 31z" />
    <glyph glyph-name="approxequal" unicode="&#x2248;" 
d="M98 130q-14 0 -24 8t-10 24q0 37 37.5 75.5t87.5 38.5q46 0 112.5 -37.5t98.5 -37.5q23 0 38.5 11.5t22 25.5t17 25.5t24.5 11.5t24 -8.5t10 -24.5q0 -38 -35.5 -75.5t-90.5 -37.5q-53 0 -115.5 37t-95.5 37q-21 0 -36.5 -11.5t-22.5 -25t-18 -25t-24 -11.5zM98 314
q-14 0 -24 8t-10 24q0 37 37.5 75.5t87.5 38.5q46 0 112.5 -37.5t98.5 -37.5q23 0 38.5 11.5t22 25.5t17 25.5t24.5 11.5t24 -8.5t10 -24.5q0 -38 -35.5 -75.5t-90.5 -37.5q-53 0 -115.5 37t-95.5 37q-21 0 -36.5 -11.5t-22.5 -25t-18 -25t-24 -11.5z" />
    <glyph glyph-name="notequal" unicode="&#x2260;" 
d="M80 397h204l57 188q11 30 38 30q15 0 26 -11.5t11 -28.5q0 -6 -4 -22l-47 -156h156q15 0 24.5 -11t9.5 -26t-9.5 -25.5t-24.5 -10.5h-178l-40 -134h218q15 0 24.5 -11t9.5 -26t-9.5 -25.5t-24.5 -10.5h-240l-51 -171q-10 -27 -37 -27q-16 0 -27 11t-11 26q0 9 3 20
l42 141h-120q-15 0 -24.5 10.5t-9.5 25.5t9.5 26t24.5 11h142l40 134h-182q-15 0 -24.5 10.5t-9.5 25.5t9.5 26t24.5 11z" />
    <glyph glyph-name="lessequal" unicode="&#x2264;" 
d="M514 -1h-441q-15 0 -24.5 11t-9.5 26t9.5 25.5t24.5 10.5h441q15 0 24.5 -10.5t9.5 -25.5t-9.5 -26t-24.5 -11zM35 393q0 23 27 37l426 218q16 7 25 7q14 0 22.5 -9.5t8.5 -23.5q0 -23 -24 -36l-375 -193l370 -192q29 -15 29 -38q0 -14 -9 -23.5t-22 -9.5q-9 0 -31 11
l-420 216q-27 12 -27 36z" />
    <glyph glyph-name="greaterequal" unicode="&#x2265;" 
d="M521 -1h-441q-15 0 -24.5 11t-9.5 26t9.5 25.5t24.5 10.5h441q15 0 24.5 -10.5t9.5 -25.5t-9.5 -26t-24.5 -11zM544 393q0 -24 -27 -36l-420 -216q-22 -11 -31 -11q-13 0 -22 9.5t-9 23.5q0 23 29 38l370 192l-375 193q-24 13 -24 36q0 14 8.5 23.5t22.5 9.5q6 0 25 -7
l426 -218q27 -14 27 -37z" />
    <glyph glyph-name="lozenge" unicode="&#x25ca;" horiz-adv-x="565" 
d="M251 -45l-184 365q-10 20 -10 29q0 13 11 31l182 364q9 17 32 17q24 0 33 -17l181 -363q11 -18 11 -32q0 -12 -8 -26l-186 -368q-9 -16 -31 -16t-31 16zM438 348l-156 329l-159 -326l159 -330z" />
    <glyph glyph-name="a.ss01" horiz-adv-x="558" 
d="M47 267q0 72 21.5 131.5t73.5 100.5t127 41q92 0 138 -73v26q0 46 39 46q40 0 40 -46v-451q0 -47 -40 -47t-40 47v50q-18 -46 -57.5 -72t-90.5 -26q-105 0 -158 76t-53 197zM132 267q0 -82 33 -141t104 -59t104 59t33 141q0 81 -33 139.5t-104 58.5t-104 -58.5
t-33 -139.5z" />
    <glyph glyph-name="colon.caps" horiz-adv-x="244" 
d="M66 483q0 23 17 39.5t39 16.5t38.5 -16.5t16.5 -39.5t-16.5 -39t-38.5 -16q-23 0 -39.5 16.5t-16.5 38.5zM66 159q0 23 17 39.5t39 16.5t38.5 -16.5t16.5 -39.5t-16.5 -39t-38.5 -16q-23 0 -39.5 16.5t-16.5 38.5z" />
    <glyph glyph-name="r.calt" horiz-adv-x="311" 
d="M62 32v470q0 16 11.5 26.5t28.5 10.5t28 -10.5t11 -26.5v-49q49 87 112 87q17 0 27.5 -11.5t10.5 -29.5q0 -17 -10.5 -28.5t-27.5 -11.5q-46 0 -78.5 -39.5t-32.5 -113.5v-274q0 -17 -11 -27t-29 -10q-17 0 -28.5 10t-11.5 27z" />
    <glyph glyph-name="agrave.ss01" horiz-adv-x="549" 
d="M38 267q0 72 21.5 131.5t73.5 100.5t127 41q92 0 138 -73v26q0 46 39 46q40 0 40 -46v-451q0 -47 -40 -47t-40 47v50q-18 -46 -57.5 -72t-90.5 -26q-105 0 -158 76t-53 197zM123 267q0 -82 33 -141t104 -59t104 59t33 141q0 81 -33 139.5t-104 58.5t-104 -58.5
t-33 -139.5zM208 733l149 -59q26 -10 26 -37q0 -15 -10 -25t-25 -10q-8 0 -17 3l-151 60q-24 11 -24 33q0 16 11 26.5t27 10.5q11 0 14 -2z" />
    <glyph glyph-name="aacute.ss01" horiz-adv-x="549" 
d="M38 267q0 72 21.5 131.5t73.5 100.5t127 41q92 0 138 -73v26q0 46 39 46q40 0 40 -46v-451q0 -47 -40 -47t-40 47v50q-18 -46 -57.5 -72t-90.5 -26q-105 0 -158 76t-53 197zM123 267q0 -82 33 -141t104 -59t104 59t33 141q0 81 -33 139.5t-104 58.5t-104 -58.5
t-33 -139.5zM182 674l150 59q2 2 13 2q16 0 27 -10.5t11 -26.5q0 -22 -23 -33l-152 -60q-9 -3 -17 -3q-15 0 -25 10t-10 25q0 27 26 37z" />
    <glyph glyph-name="acircumflex.ss01" horiz-adv-x="549" 
d="M38 267q0 72 21.5 131.5t73.5 100.5t127 41q92 0 138 -73v26q0 46 39 46q40 0 40 -46v-451q0 -47 -40 -47t-40 47v50q-18 -46 -57.5 -72t-90.5 -26q-105 0 -158 76t-53 197zM123 267q0 -82 33 -141t104 -59t104 59t33 141q0 81 -33 139.5t-104 58.5t-104 -58.5
t-33 -139.5zM270 723l139 -56q23 -10 23 -34q0 -15 -10.5 -26t-25.5 -11q-13 0 -25 7l-101 46l-102 -46q-12 -7 -23 -7q-15 0 -26 11t-11 26q0 23 24 34z" />
    <glyph glyph-name="atilde.ss01" horiz-adv-x="549" 
d="M38 267q0 72 21.5 131.5t73.5 100.5t127 41q92 0 138 -73v26q0 46 39 46q40 0 40 -46v-451q0 -47 -40 -47t-40 47v50q-18 -46 -57.5 -72t-90.5 -26q-105 0 -158 76t-53 197zM123 267q0 -82 33 -141t104 -59t104 59t33 141q0 81 -33 139.5t-104 58.5t-104 -58.5
t-33 -139.5zM114 645q0 27 27.5 50.5t59.5 23.5q23 0 66 -20.5t64 -20.5q14 0 32 16.5t30 16.5q33 0 33 -31q0 -26 -27.5 -50t-59.5 -24q-24 0 -67 20t-63 20q-15 0 -32.5 -15.5t-30.5 -15.5q-32 0 -32 30z" />
    <glyph glyph-name="adieresis.ss01" horiz-adv-x="549" 
d="M38 267q0 72 21.5 131.5t73.5 100.5t127 41q92 0 138 -73v26q0 46 39 46q40 0 40 -46v-451q0 -47 -40 -47t-40 47v50q-18 -46 -57.5 -72t-90.5 -26q-105 0 -158 76t-53 197zM123 267q0 -82 33 -141t104 -59t104 59t33 141q0 81 -33 139.5t-104 58.5t-104 -58.5
t-33 -139.5zM126 645q0 22 15.5 37t36.5 15q22 0 37 -15t15 -37q0 -21 -15 -36.5t-37 -15.5q-21 0 -36.5 15.5t-15.5 36.5zM310 645q0 22 15 37t37 15q21 0 36 -15t15 -37q0 -21 -15 -36.5t-36 -15.5q-22 0 -37 15.5t-15 36.5z" />
    <glyph glyph-name="aring.ss01" horiz-adv-x="558" 
d="M47 267q0 72 21.5 131.5t73.5 100.5t127 41q92 0 138 -73v26q0 46 39 46q40 0 40 -46v-451q0 -47 -40 -47t-40 47v50q-18 -46 -57.5 -72t-90.5 -26q-105 0 -158 76t-53 197zM132 267q0 -82 33 -141t104 -59t104 59t33 141q0 81 -33 139.5t-104 58.5t-104 -58.5
t-33 -139.5zM185 678q0 38 28 65.5t66 27.5t65.5 -27.5t27.5 -65.5q0 -39 -27.5 -66.5t-65.5 -27.5t-66 27.5t-28 66.5zM228 678q0 -21 15 -36t36 -15q20 0 35 15t15 36q0 20 -15 35t-35 15q-21 0 -36 -15t-15 -35z" />
    <glyph glyph-name="I.ss02" horiz-adv-x="225" 
d="M153 680v-649q0 -17 -11.5 -27t-28.5 -10q-18 0 -29.5 10t-11.5 27v649q0 17 11.5 27t29.5 10q17 0 28.5 -10t11.5 -27z" />
    <glyph glyph-name="Igrave.ss02" horiz-adv-x="225" 
d="M51 900l149 -59q26 -10 26 -37q0 -15 -10 -25t-25 -10q-8 0 -17 3l-151 60q-24 10 -24 33q0 16 11 26.5t27 10.5q11 0 14 -2zM153 680v-649q0 -17 -11.5 -27t-28.5 -10q-18 0 -29.5 10t-11.5 27v649q0 17 11.5 27t29.5 10q17 0 28.5 -10t11.5 -27z" />
    <glyph glyph-name="Iacute.ss02" horiz-adv-x="225" 
d="M71 841l150 59q2 2 13 2q16 0 27 -10.5t11 -26.5q0 -22 -23 -33l-152 -60q-9 -3 -17 -3q-15 0 -25 10t-10 25q0 27 26 37zM153 680v-649q0 -17 -11.5 -27t-28.5 -10q-18 0 -29.5 10t-11.5 27v649q0 17 11.5 27t29.5 10q17 0 28.5 -10t11.5 -27z" />
    <glyph glyph-name="Icircumflex.ss02" horiz-adv-x="225" 
d="M113 890l139 -56q23 -10 23 -34q0 -15 -10.5 -26t-25.5 -11q-13 0 -25 7l-101 46l-102 -46q-12 -7 -23 -7q-15 0 -26 11t-11 26q0 23 24 34zM153 680v-649q0 -17 -11.5 -27t-28.5 -10q-18 0 -29.5 10t-11.5 27v649q0 17 11.5 27t29.5 10q17 0 28.5 -10t11.5 -27z" />
    <glyph glyph-name="Idieresis.ss02" horiz-adv-x="225" 
d="M-31 812q0 22 15.5 37t36.5 15q22 0 37 -15t15 -37q0 -21 -15 -36.5t-37 -15.5q-21 0 -36.5 15.5t-15.5 36.5zM153 812q0 22 15 37t37 15q21 0 36 -15t15 -37q0 -21 -15 -36.5t-36 -15.5q-22 0 -37 15.5t-15 36.5zM153 680v-649q0 -17 -11.5 -27t-28.5 -10
q-18 0 -29.5 10t-11.5 27v649q0 17 11.5 27t29.5 10q17 0 28.5 -10t11.5 -27z" />
    </font>
</defs>
</svg>
