<?xml version="1.0" standalone="no"?> <!DOCTYPE svg PUBLIC "-//W3C//DTD SVG 1.0//EN" "http://www.w3.org/TR/2001/REC-SVG-20010904/DTD/svg10.dtd" > <svg xmlns="http://www.w3.org/2000/svg" width="100%" height="100%">
<defs >
<font id="NetworkTT-Bold" horiz-adv-x="511" ><font-face
    font-family="Network TT"
    units-per-em="1000"
    panose-1="2 11 8 0 3 0 0 2 0 3"
    ascent="770"
    descent="-230"
    alphabetic="0" />
<missing-glyph horiz-adv-x="506" d="M3 700H503V0H3V700ZM423 650H83L253 395L423 650ZM453 95V605L283 350L453 95ZM423 50L253 305L83 50H423ZM53 95L223 350L53 605V95Z" />
<glyph unicode=" " glyph-name="space" horiz-adv-x="265" />
<glyph unicode="!" glyph-name="exclam" horiz-adv-x="272" d="M73 670Q73 696 91 705T136 714Q162 714 180 705T199 670V265Q199 239 181 221T136 202Q110 202 92 220T73 265V670ZM62 62Q62 93 84 115T136 137Q167 137 189 115T211 62Q211 31 189 9T136 -13Q106
-13 84 9T62 62Z" />
<glyph unicode="&quot;" glyph-name="quotedbl" horiz-adv-x="429" d="M75 671Q75 697 90 705T129 714Q153 714 168 706T184 671V489Q184 463 169 454T129 444Q105 444 90 453T75 489V671ZM245 671Q245 697 260 705T300 714Q324 714 339 706T354 671V489Q354 463
339 454T300 444Q275 444 260 453T245 489V671Z" />
<glyph unicode="#" glyph-name="numbersign" horiz-adv-x="584" d="M131 206H77Q55 206 48 218T40 248Q40 264 47 276T77 289H143L161 422H106Q85 422 78 434T70 464Q70 481 77 493T106 506H173L198 682Q201 699 211 706T245 714Q262 714 273 709T285 687Q285
682 284 674T281 654L260 506H365L390 682Q392 699 402 706T436 714Q453 714 464 709T476 687Q476 682 475 674T472 654L451 506H507Q528 506 536 494T544 464Q544 448 536 435T507 422H439L421 289H477Q499 289 506 277T514 248Q514 231 507 219T477 206H409L385
32Q382 13 373 6T339 -2Q322 -2 310 3T298 25Q298 29 299 38T302 59L323 206H218L194 32Q191 13 182 6T148 -2Q131 -2 119 3T107 25Q107 29 108 38T111 59L131 206ZM230 289H334L353 422H248L230 289Z" />
<glyph unicode="$" glyph-name="dollar" horiz-adv-x="514" d="M28 77Q28 89 32 103T44 129T61 149T81 157Q91 157 105 150T139 132T184 114T242 102V308L213 321Q177 337 146 355T91 397T54 454T41 532Q41 575 56 609T98 667T162 705T242 723V767Q242 779 251
788T272 797Q284 797 292 788T301 767V722Q328 719 357 712T410 694T449 669T465 638Q465 629 461 616T449 591T431 571T408 562Q399 562 389 567T367 580T338 594T301 607V427L309 423Q352 403 387 382T446 336T484 278T497 202Q497 114 445 60T301 -9V-52Q301
-64 293 -72T272 -81Q260 -81 251 -73T242 -53V-13H240Q205 -13 168 -5T99 15T48 44T28 77ZM167 541Q167 511 185 493T242 454V610Q202 606 185 588T167 541ZM367 188Q367 217 350 238T301 278V105Q336 114 351 137T367 188Z" />
<glyph unicode="%" glyph-name="percent" horiz-adv-x="711" d="M183 394Q150 394 122 407T73 442T40 494T28 558Q28 593 40 623T74 676T123 711T183 724Q215 724 243 712T293 677T326 624T339 558Q339 524 327 494T293 442T244 407T183 394ZM527 -13Q494 -13
466 0T417 35T384 87T372 151Q372 187 384 217T418 270T467 305T527 318Q559 318 587 305T637 270T670 217T683 151Q683 117 671 87T637 35T588 0T527 -13ZM527 83Q555 83 569 104T584 151Q584 180 569 201T527 222Q501 222 486 201T471 151Q471 125 485 104T527
83ZM183 490Q212 490 226 511T240 558Q240 587 225 608T183 629Q157 629 142 608T127 558Q127 532 141 511T183 490ZM476 698Q486 717 497 722T536 728Q555 728 567 722T580 699Q580 694 577 686T570 670T562 653T554 639L234 14Q224 -5 213 -11T172 -17Q154 -17
142 -11T129 12Q129 17 132 25T139 41T147 58T155 72L476 698Z" />
<glyph unicode="&amp;" glyph-name="ampersand" horiz-adv-x="686" d="M252 -9Q149 -9 92 44T34 192Q34 229 46 260T79 319T127 368T186 411Q161 444 140 483T119 565Q119 638 168 678T301 719Q378 719 425 679T473 569Q473 545 467 523T445 480T406 436T347 388L465
246L517 307Q527 318 534 325T549 337T567 344T593 346Q655 346 655 314Q655 300 634 275T585 218Q571 202 559 188T535 161L593 91Q598 85 605 77T619 60T630 43T635 29Q635 10 617 4T573 -2Q541 -3 527 3T498 28L455 80Q428 55 404 38T355 11T305 -4T252 -9ZM255
96Q271 96 286 99T317 110T350 131T387 164L255 326Q206 291 184 261T162 193Q162 150 187 123T255 96ZM234 563Q234 540 247 516T281 467Q324 495 341 517T358 565Q358 593 342 610T295 628Q269 628 252 611T234 563Z" />
<glyph unicode="&apos;" glyph-name="quotesingle" horiz-adv-x="239" d="M66 671Q66 697 81 705T120 714Q144 714 159 706T174 671V488Q174 462 159 453T120 444Q96 444 81 453T66 488V671Z" />
<glyph unicode="(" glyph-name="parenleft" horiz-adv-x="296" d="M206 -111Q189 -111 177 -100T152 -68Q132 -35 113 6T79 96T55 204T45 331Q45 398 54 456T79 564T113 653T152 727Q165 747 177 758T206 770Q217 770 228 765T248 752T262 733T268 714Q268 701
262 689T251 669Q238 646 222 612T192 535T169 440T159 331Q159 274 168 222T192 126T222 47T251 -10Q256 -19 262 -30T268 -55Q268 -64 263 -74T248 -92T228 -106T206 -111Z" />
<glyph unicode=")" glyph-name="parenright" horiz-adv-x="296" d="M101 -111Q90 -111 79 -106T59 -93T45 -74T39 -55Q39 -42 45 -31T57 -10Q70 12 86 47T116 126T139 222T149 331Q149 388 140 439T116 534T86 612T57 669Q52 677 46 689T39 714Q39 723 44 733T59
751T79 765T101 770Q119 770 131 759T155 727Q175 694 194 654T229 564T253 457T263 331Q263 263 254 205T229 97T195 6T155 -68Q143 -88 131 -99T101 -111Z" />
<glyph unicode="*" glyph-name="asterisk" horiz-adv-x="395" d="M127 532Q110 540 93 546T62 560T40 577T31 599Q31 618 42 632T75 646Q90 646 108 634T162 594Q157 630 154 647T151 676Q151 698 164 708T197 718Q216 718 229 708T243 676Q243 665 240 648T232
594Q269 621 286 633T318 646Q338 646 351 632T364 597Q364 586 358 578T338 563T307 549T267 532Q288 523 305 516T336 502T356 487T364 467Q364 447 351 433T318 419Q304 419 287 431T232 470Q237 434 240 417T243 388Q243 367 230 357T197 346Q178 346 165 356T151
388Q151 399 154 416T162 470Q128 446 110 433T75 419Q54 419 43 433T31 467Q31 479 38 487T58 502T88 516T127 532Z" />
<glyph unicode="+" glyph-name="plus" horiz-adv-x="606" d="M249 226H71Q48 226 40 241T32 280Q32 303 40 319T71 335H249V510Q249 533 264 541T303 549Q326 549 341 541T357 510V335H536Q558 335 566 319T575 280Q575 257 567 242T536 226H357V50Q357 27 342
19T303 11Q280 11 265 19T249 50V226Z" />
<glyph unicode="," glyph-name="comma" horiz-adv-x="271" d="M88 93Q96 108 108 120T140 132Q170 132 189 115T209 76Q209 54 193 28L122 -98Q111 -118 99 -131T67 -145Q35 -145 16 -127T-4 -88Q-4 -77 -1 -67T11 -43L88 93Z" />
<glyph unicode="-" glyph-name="hyphen" horiz-adv-x="406" d="M332 329Q354 329 362 313T370 275Q370 252 362 236T332 220H75Q52 220 44 236T36 275Q36 297 44 313T75 329H332Z" />
<glyph unicode="." glyph-name="period" horiz-adv-x="271" d="M61 62Q61 93 83 115T135 137Q166 137 188 115T210 62Q210 31 188 9T135 -13Q105 -13 83 9T61 62Z" />
<glyph unicode="/" glyph-name="slash" horiz-adv-x="409" d="M262 738Q268 757 280 763T321 770Q345 770 355 762T366 737Q366 726 363 713T357 691L147 -49Q142 -68 130 -74T89 -81Q64 -81 54 -73T43 -49Q43 -38 46 -26T51 -5L262 738Z" />
<glyph unicode="0" glyph-name="zero" horiz-adv-x="581" d="M40 356Q40 437 54 504T99 621T177 697T290 724Q356 724 403 697T481 621T526 505T541 356Q541 275 527 207T482 91T404 15T290 -13Q224 -13 177 14T100 90T55 207T40 356ZM176 356Q176 312 179 269T195
190T229 134T290 112Q328 112 350 133T385 190T401 268T405 356Q405 400 401 443T385 522T351 578T290 600Q252 600 230 579T195 522T180 444T176 356Z" />
<glyph unicode="1" glyph-name="one" horiz-adv-x="497" d="M221 117V545L146 491Q135 483 124 477T101 471Q90 471 79 479T59 498T45 521T39 543Q39 560 47 568T69 587L239 704Q249 711 264 712T294 714Q316 714 334 706T352 677V117H442Q466 117 474 100T483
58Q483 35 475 18T442 0H103Q80 0 72 17T63 58Q63 82 71 99T103 117H221Z" />
<glyph unicode="2" glyph-name="two" horiz-adv-x="506" d="M104 0Q81 0 64 17T46 58Q46 115 67 160T121 244T190 316T259 381T312 445T334 514Q334 553 311 578T247 604Q212 604 189 590T143 545Q134 533 125 525T101 517Q90 517 78 523T56 538T38 560T31 585Q31
599 41 615T65 649Q94 682 140 703T249 724Q294 724 332 709T399 667T444 603T460 519Q460 468 440 426T390 350T326 286T261 229T211 175T191 121H420Q449 121 458 102T468 60Q468 37 458 19T420 0H104Z" />
<glyph unicode="3" glyph-name="three" horiz-adv-x="528" d="M243 -13Q207 -13 170 -5T103 15T54 44T35 77Q35 89 39 103T51 129T68 149T88 157Q99 157 113 150T146 133T189 116T244 108Q292 108 320 136T348 212Q348 240 338 260T311 292T269 309T218 315Q185
315 176 332T166 375Q166 401 175 418T218 435Q240 435 259 441T293 460T316 488T325 523Q325 558 304 581T237 604Q212 604 192 598T154 584T124 570T99 563Q86 563 76 571T59 590T47 614T43 636Q43 648 50 659T71 679Q103 698 147 711T240 724Q286 724 325 711T393
674T438 616T454 541Q454 510 446 486T423 442T389 410T348 387Q412 370 450 326T488 204Q488 157 471 118T422 49T345 4T243 -13Z" />
<glyph unicode="4" glyph-name="four" horiz-adv-x="574" d="M556 223Q556 198 547 181T514 164H460V48Q460 14 443 4T397 -6Q368 -6 351 4T333 47V164H102Q91 164 79 171T57 188T40 210T33 231Q33 238 35 245T39 259L196 685Q203 703 218 708T256 714Q282 714
303 706T324 678Q324 668 321 658T314 637L181 281H333V457Q333 483 352 492T397 501Q423 501 441 492T460 457V281H514Q538 281 547 264T556 223Z" />
<glyph unicode="5" glyph-name="five" horiz-adv-x="536" d="M235 -13Q205 -13 171 -5T109 15T62 44T43 77Q43 89 47 103T59 129T75 149T96 157Q107 157 119 150T148 135T186 119T237 112Q288 112 315 144T343 240Q343 289 317 319T239 349Q220 349 206 345T179
337T156 329T134 325Q124 325 112 330T90 345T72 364T65 386Q65 391 65 394T66 404L96 658Q99 685 109 698T150 712H418Q447 712 456 695T466 652Q466 627 455 609T418 591H201L186 441Q203 452 232 458T288 465Q333 465 369 447T431 399T469 327T483 238Q483 182
465 136T415 56T336 5T235 -13Z" />
<glyph unicode="6" glyph-name="six" horiz-adv-x="542" d="M272 -9Q213 -9 170 11T97 65T54 144T40 239Q40 369 100 486T290 709Q309 724 326 724Q336 724 348 717T372 698T390 672T397 646Q397 640 394 634T380 619Q362 605 341 587T298 548T255 501T217 446Q254
469 303 469Q353 469 390 451T452 402T489 328T502 235Q502 187 487 143T443 65T371 11T272 -9ZM269 116Q312 116 338 147T365 234Q365 289 340 321T270 353Q225 353 201 322T176 234Q176 186 199 151T269 116Z" />
<glyph unicode="7" glyph-name="seven" horiz-adv-x="485" d="M173 -6Q144 -6 128 0T111 25Q111 35 114 43T121 62L315 591H54Q28 591 20 608T11 651Q11 677 19 694T53 712H411Q420 712 429 704T445 685T458 661T463 639Q463 631 460 621T454 601L242 23Q235 4
221 -1T173 -6Z" />
<glyph unicode="8" glyph-name="eight" horiz-adv-x="551" d="M275 -13Q219 -13 176 5T102 54T56 126T40 214Q40 241 46 268T66 319T98 362T142 395Q129 402 116 415T93 446T76 487T69 537Q69 580 84 615T128 674T193 711T275 724Q319 724 357 711T422 674T466
615T482 537Q482 510 475 487T458 446T434 415T408 395Q433 382 452 363T485 319T504 268T511 214Q511 167 495 126T449 54T375 5T275 -13ZM275 440Q313 440 332 465T351 525Q351 560 331 584T275 608Q240 608 220 584T200 526Q200 491 219 466T275 440ZM275 112Q299
112 317 121T348 147T367 184T374 227Q374 272 349 305T275 339Q251 339 233 330T202 306T183 270T176 227Q176 205 182 184T201 147T232 122T275 112Z" />
<glyph unicode="9" glyph-name="nine" horiz-adv-x="542" d="M270 724Q329 724 372 704T445 651T488 572T502 477Q502 347 442 230T251 7Q232 -9 215 -9Q205 -9 193 -2T170 18T152 44T144 70Q144 76 147 82T161 97Q179 111 200 129T243 168T286 215T325 270Q305
258 285 253T238 247Q188 247 151 265T90 314T53 388T40 481Q40 529 55 573T99 650T171 704T270 724ZM272 600Q229 600 203 569T177 482Q177 427 202 395T272 363Q317 363 341 394T365 482Q365 530 342 565T272 600Z" />
<glyph unicode=":" glyph-name="colon" horiz-adv-x="271" d="M61 378Q61 408 83 430T135 453Q166 453 188 431T210 378Q210 347 188 325T135 303Q105 303 83 325T61 378ZM61 62Q61 93 83 115T135 137Q166 137 188 115T210 62Q210 31 188 9T135 -13Q105 -13 83 9T61 62Z" />
<glyph unicode=";" glyph-name="semicolon" horiz-adv-x="271" d="M61 378Q61 408 83 430T135 453Q166 453 188 431T210 378Q210 347 188 325T135 303Q105 303 83 325T61 378ZM88 93Q96 108 108 120T140 132Q170 132 189 115T209 76Q209 54 193 28L122 -98Q111
-118 99 -131T67 -145Q35 -145 16 -127T-4 -88Q-4 -77 -1 -67T11 -43L88 93Z" />
<glyph unicode="&lt;" glyph-name="less" horiz-adv-x="606" d="M29 266Q29 282 34 292T55 311L496 533Q504 537 515 540T537 544Q569 544 569 500Q569 474 564 462T538 438L185 266L537 93Q559 82 564 70T569 34Q569 -11 537 -11Q526 -11 514 -7T494 2L55 221Q39
229 34 239T29 266Z" />
<glyph unicode="=" glyph-name="equal" horiz-adv-x="606" d="M536 439Q558 439 566 423T575 385Q575 362 567 346T536 330H70Q47 330 40 346T32 385Q32 407 39 423T70 439H536ZM536 215Q558 215 566 199T575 160Q575 138 567 122T536 106H70Q47 106 40 122T32
160Q32 183 39 199T70 215H536Z" />
<glyph unicode="&gt;" glyph-name="greater" horiz-adv-x="606" d="M577 266Q577 250 572 240T551 221L112 2Q104 -3 92 -7T69 -11Q37 -11 37 34Q37 46 38 54T42 70T51 82T69 93L421 266L68 438Q47 449 42 461T37 500Q37 544 69 544Q79 544 90 541T110 533L551
311Q567 303 572 293T577 266Z" />
<glyph unicode="?" glyph-name="question" horiz-adv-x="465" d="M143 352Q143 377 159 394T207 417Q254 425 281 449T309 513Q309 553 286 578T223 604Q188 604 165 590T118 545Q109 533 99 525T74 517Q63 517 52 523T30 538T13 559T6 583Q6 599 15 615T40 649Q69
682 116 703T224 724Q269 724 307 709T374 667T419 603T435 520Q435 430 389 382T270 318V264Q270 238 252 220T207 201Q181 201 162 219T143 264V352ZM133 62Q133 93 155 115T207 137Q238 137 260 115T282 62Q282 31 260 9T207 -13Q177 -13 155 9T133 62Z" />
<glyph unicode="@" glyph-name="at" horiz-adv-x="900" d="M342 213Q342 169 358 147T411 124Q439 124 462 140T501 181T527 237T536 299Q536 329 519 350T470 371Q440 371 416 356T376 317T351 266T342 213ZM468 -176Q379 -176 301 -144T164 -56T72 78T38 245Q38
334 71 411T162 544T297 633T463 666Q547 666 619 641T746 568T831 455T862 306Q862 223 834 168T766 79T682 31T603 17Q556 17 536 39T515 98Q495 66 459 43T377 20Q306 20 266 69T226 200Q226 255 243 305T291 392T362 452T449 475Q494 475 524 458T572 399L584
434Q590 453 603 457T634 462Q654 462 666 456T678 429Q678 424 677 417T674 398L617 185Q615 175 613 163T610 141Q610 130 615 121T642 112Q657 112 679 122T722 153T757 206T772 284Q772 355 749 409T684 500T585 556T461 575Q393 575 334 549T230 478T159 373T133
244Q133 170 159 110T230 7T337 -60T467 -84Q514 -84 549 -77T611 -60T658 -36T695 -11Q706 -4 714 2T733 9Q741 9 750 3T766 -11T778 -29T783 -45Q783 -53 780 -58T767 -72Q749 -87 722 -105T657 -139T572 -165T468 -176Z" />
<glyph unicode="A" glyph-name="A" horiz-adv-x="596" d="M417 163H179L139 24Q132 1 115 -2T78 -6Q51 -6 30 2T8 35Q8 47 12 56L187 594Q200 634 209 658T230 696T257 713T298 718Q323 718 338 714T365 696T386 659T409 594L584 57Q586 52 587 47T588 35Q588
9 566 2T516 -6Q495 -6 479 -2T457 26L417 163ZM213 284H383L298 578L213 284Z" />
<glyph unicode="B" glyph-name="B" horiz-adv-x="559" d="M64 647Q64 682 79 697T130 712H303Q355 712 392 698T454 658T490 599T502 528Q502 471 470 435T389 384Q458 370 493 323T529 203Q529 164 517 128T478 63T406 17T299 0H130Q95 0 80 15T64 65V647ZM195
425H269Q311 425 341 447T372 511Q372 549 347 572T273 595H195V425ZM195 117H285Q338 117 366 139T394 213Q394 261 364 285T284 310H195V117Z" />
<glyph unicode="C" glyph-name="C" horiz-adv-x="591" d="M335 -13Q260 -13 204 13T112 87T57 203T38 356Q38 440 57 508T115 624T212 698T350 724Q384 724 421 716T490 695T541 665T561 629Q561 620 557 607T544 583T526 563T504 554Q493 554 480 562T449 579T407
596T350 604Q296 604 263 582T211 525T186 446T179 356Q179 311 185 267T210 187T260 130T346 108Q380 108 405 114T450 129T484 144T510 151Q519 151 527 143T543 123T554 99T559 77Q559 59 539 43T486 14T414 -5T335 -13Z" />
<glyph unicode="D" glyph-name="D" horiz-adv-x="642" d="M64 647Q64 682 79 697T130 712H309Q391 712 447 683T539 606T589 493T604 357Q604 277 587 212T533 99T441 26T307 0H130Q95 0 80 15T64 65V647ZM195 121H288Q342 121 376 139T429 189T456 266T464 362Q464
409 457 451T430 524T378 573T294 591H195V121Z" />
<glyph unicode="E" glyph-name="E" horiz-adv-x="492" d="M60 647Q60 682 75 697T126 712H432Q457 712 465 695T474 652Q474 627 466 609T432 591H191V417H357Q382 417 390 400T399 357Q399 332 391 315T357 297H191V121H432Q457 121 465 103T474 60Q474 35 466
18T432 0H126Q90 0 75 15T60 65V647Z" />
<glyph unicode="F" glyph-name="F" horiz-adv-x="466" d="M60 647Q60 682 75 697T126 712H433Q458 712 466 695T474 652Q474 627 466 609T433 591H191V417H358Q383 417 391 400T399 357Q399 332 391 315T358 297H191V39Q191 12 172 3T126 -6Q98 -6 79 3T60 39V647Z" />
<glyph unicode="G" glyph-name="G" horiz-adv-x="651" d="M542 389Q590 389 605 371T620 306V233Q620 176 600 131T544 53T455 4T337 -13Q262 -13 206 13T113 87T57 203T38 356Q38 440 57 508T116 624T216 698T357 724Q393 724 431 716T501 695T553 665T574 629Q574
620 570 607T557 583T539 563T518 554Q507 554 494 562T463 579T418 596T355 604Q299 604 265 582T211 525T186 446T179 356Q179 311 185 267T210 187T260 130T346 108Q414 108 452 140T491 231V269H394Q363 269 354 285T345 329Q345 357 354 373T394 389H542Z"
/>
<glyph unicode="H" glyph-name="H" horiz-adv-x="663" d="M195 40Q195 13 176 4T130 -5Q102 -5 83 4T64 40V669Q64 696 83 705T130 714Q157 714 176 705T195 669V425H468V669Q468 696 487 705T534 714Q561 714 580 705T599 669V40Q599 13 580 4T534 -5Q506 -5
487 4T468 40V305H195V40Z" />
<glyph unicode="I" glyph-name="I" horiz-adv-x="419" d="M84 612Q55 612 46 626T36 662Q36 683 44 697T73 712H345Q366 712 374 698T383 662Q383 641 375 627T345 612H275V100H345Q366 100 374 86T383 50Q383 29 375 15T345 0H73Q53 0 45 14T36 50Q36 71 44 85T73
100H144V612H84Z" />
<glyph unicode="J" glyph-name="J" horiz-adv-x="442" d="M250 669Q250 696 269 705T315 714Q342 714 361 705T380 669V200Q380 159 372 121T342 53T283 5T185 -13Q155 -13 125 -5T70 15T31 43T15 72Q15 83 20 97T32 123T49 143T69 151Q80 151 90 145T113 132T141
118T176 112Q219 112 234 137T250 219V669Z" />
<glyph unicode="K" glyph-name="K" horiz-adv-x="558" d="M191 415L389 682Q400 699 413 706T463 714Q492 714 509 708T527 682Q527 670 518 655T502 632L309 376L523 87Q535 68 544 53T553 26Q553 9 537 2T491 -6Q474 -6 462 -5T442 0T428 10T415 26L191 330V39Q191
12 172 3T126 -6Q98 -6 79 3T60 39V669Q60 696 79 705T126 714Q153 714 172 705T191 669V415Z" />
<glyph unicode="L" glyph-name="L" horiz-adv-x="462" d="M60 669Q60 696 79 705T126 714Q153 714 172 705T191 669V121H410Q435 121 443 103T452 60Q452 35 444 18T410 0H126Q91 0 76 15T60 65V669Z" />
<glyph unicode="M" glyph-name="M" horiz-adv-x="826" d="M705 635Q729 490 745 390T773 223T790 119T799 64T802 40T803 32Q803 9 781 2T732 -6Q706 -6 690 0T670 26L604 513L486 65Q480 44 474 31T460 12T440 3T413 0Q383 0 367 11T340 65L222 517L156 27Q153
4 136 -1T93 -6Q67 -6 46 1T24 31Q24 36 24 42T26 56L121 635Q125 662 132 678T150 702T177 712T218 714Q238 714 252 711T277 698T295 673T309 631L413 201L518 631Q524 657 532 673T550 698T575 710T610 714Q634 714 650 712T677 702T694 678T705 635Z" />
<glyph unicode="N" glyph-name="N" horiz-adv-x="663" d="M64 674Q64 694 79 704T120 714Q151 714 166 705T192 679L468 257V669Q468 696 487 705T534 714Q561 714 580 705T599 669V41Q599 14 583 4T545 -6Q520 -6 504 -1T477 22L195 454V39Q195 12 176 3T130
-6Q102 -6 83 3T64 39V674Z" />
<glyph unicode="O" glyph-name="O" horiz-adv-x="689" d="M345 -13Q267 -13 210 13T114 87T57 203T38 356Q38 438 56 506T113 622T209 697T345 724Q423 724 480 698T576 623T632 506T651 356Q651 272 633 204T576 87T481 13T345 -13ZM345 108Q397 108 429 130T480
187T504 266T511 356Q511 401 505 445T480 525T430 582T345 604Q292 604 260 582T209 525T185 446T179 356Q179 311 185 267T209 187T259 130T345 108Z" />
<glyph unicode="P" glyph-name="P" horiz-adv-x="533" d="M60 646Q60 681 75 696T126 712H293Q345 712 386 695T457 647T501 574T517 480Q517 430 504 387T463 313T392 263T290 244H191V39Q191 12 172 3T126 -6Q98 -6 79 3T60 39V646ZM191 361H268Q300 361 321
371T356 397T376 435T382 478Q382 503 376 524T356 561T321 586T268 595H191V361Z" />
<glyph unicode="Q" glyph-name="Q" horiz-adv-x="689" d="M329 -13Q257 -13 203 13T112 87T57 203T38 356Q38 438 56 506T113 622T209 697T345 724Q423 724 480 698T576 623T632 507T651 356Q651 266 626 195T552 76L597 10Q605 -3 608 -10T612 -28Q612 -38 606
-49T590 -69T566 -84T537 -90Q519 -90 508 -76T486 -42L456 11Q399 -13 329 -13ZM345 108Q359 108 371 109T394 113L349 183Q344 191 339 201T334 224Q334 236 341 247T360 266T384 280T409 285Q423 285 435 274T455 246L485 190Q500 223 505 265T511 356Q511 401
505 445T480 525T430 582T345 604Q292 604 260 582T209 525T185 446T179 356Q179 311 185 267T209 187T259 130T345 108Z" />
<glyph unicode="R" glyph-name="R" horiz-adv-x="563" d="M60 656Q60 712 117 712H293Q397 712 457 657T517 505Q517 428 485 376T384 302L529 77Q539 62 545 50T552 26Q552 9 536 2T489 -6Q472 -6 460 -5T439 0T424 11T411 29L249 290H191V39Q191 12 172 3T126
-6Q98 -6 79 3T60 39V656ZM191 407H268Q332 407 357 433T382 503Q382 545 356 570T268 595H191V407Z" />
<glyph unicode="S" glyph-name="S" horiz-adv-x="524" d="M244 -13Q209 -13 172 -5T103 15T52 44T32 77Q32 89 36 103T48 129T66 149T86 157Q97 157 111 150T145 133T190 116T247 108Q277 108 297 115T329 135T345 162T350 194Q350 214 343 230T319 262T278 291T217
321Q181 337 150 355T95 397T58 454T45 532Q45 578 62 614T111 674T183 711T272 724Q300 724 334 718T399 700T449 673T469 638Q469 629 465 616T453 591T435 571T413 562Q402 562 390 568T361 583T322 597T270 604Q232 604 209 586T186 538Q186 518 192 504T214
478T253 452T313 423Q356 403 389 382T445 336T478 278T490 202Q490 100 427 44T244 -13Z" />
<glyph unicode="T" glyph-name="T" horiz-adv-x="475" d="M39 591Q15 591 6 609T-3 652Q-3 677 6 694T39 712H436Q461 712 469 695T478 652Q478 627 470 609T436 591H303V40Q303 12 284 3T237 -6Q210 -6 191 3T172 40V591H39Z" />
<glyph unicode="U" glyph-name="U" horiz-adv-x="652" d="M58 669Q58 696 77 705T123 714Q151 714 170 705T189 669V278Q189 197 224 157T325 116Q391 116 427 156T463 278V669Q463 696 482 705T528 714Q555 714 574 705T593 669V274Q593 139 523 65T325 -9Q199
-9 129 65T58 274V669Z" />
<glyph unicode="V" glyph-name="V" horiz-adv-x="567" d="M283 169L441 678Q449 701 465 707T502 714Q529 714 552 708T575 681Q575 674 573 667T569 652L393 116Q380 76 370 52T349 15T322 -2T284 -6Q260 -6 245 -2T218 15T196 52T173 116L-3 651Q-8 666 -8 681Q-8
701 15 707T66 714Q87 714 103 708T126 678L283 169Z" />
<glyph unicode="W" glyph-name="W" horiz-adv-x="841" d="M18 628Q14 649 13 657T11 673Q11 699 32 706T81 714Q107 714 122 708T142 681L248 190L343 622Q351 660 369 674T421 689Q454 689 472 675T498 622L592 191L699 680Q704 703 719 708T760 714Q787 714
808 707T830 674Q830 662 827 649L691 79Q685 52 678 36T660 10T635 -3T599 -6Q576 -6 561 -3T537 9T521 35T508 79L420 462L332 79Q326 52 320 36T303 10T279 -3T241 -6Q220 -6 206 -3T181 9T164 35T150 79L18 628Z" />
<glyph unicode="X" glyph-name="X" horiz-adv-x="565" d="M282 479L410 677Q423 697 439 705T492 714Q524 714 540 708T556 682Q556 670 549 655T537 634L355 366L532 92Q545 72 554 54T564 24Q564 7 547 1T502 -6Q484 -6 472 -4T451 2T435 14T421 34L277 255L144
32Q137 21 131 14T115 2T94 -4T63 -6Q34 -6 18 0T1 24Q1 36 10 53T33 92L203 370L35 628Q24 645 17 657T9 682Q9 702 26 708T73 714Q110 714 126 706T155 677L282 479Z" />
<glyph unicode="Y" glyph-name="Y" horiz-adv-x="547" d="M208 264L12 630Q6 641 -1 656T-8 683Q-8 702 11 708T63 714Q81 714 92 712T111 705T122 693T132 677L273 396L415 677Q420 686 424 693T436 704T455 711T486 714Q516 714 535 708T555 682Q555 671 549
656T537 630L339 264V43Q339 13 321 4T274 -6Q245 -6 227 3T208 43V264Z" />
<glyph unicode="Z" glyph-name="Z" horiz-adv-x="500" d="M76 0Q65 0 54 8T35 27T21 50T16 70Q16 84 22 97T40 126L313 591H66Q41 591 33 609T24 652Q24 677 32 694T66 712H416Q429 712 440 705T458 686T470 663T474 642Q474 629 467 614T453 588L176 121H440Q465
121 474 103T483 60Q483 35 474 18T440 0H76Z" />
<glyph unicode="[" glyph-name="bracketleft" horiz-adv-x="338" d="M278 8Q301 8 309 -8T317 -46Q317 -69 309 -84T278 -100H156Q123 -100 108 -86T93 -37V697Q93 731 108 745T156 760H278Q301 760 309 745T317 706Q317 683 309 668T278 652H208V8H278Z" />
<glyph unicode="\" glyph-name="backslash" horiz-adv-x="409" d="M357 -5Q359 -13 362 -25T366 -49Q366 -81 320 -81Q292 -81 280 -75T262 -49L52 691Q50 699 46 712T42 737Q42 770 88 770Q117 770 129 764T146 738L357 -5Z" />
<glyph unicode="]" glyph-name="bracketright" horiz-adv-x="338" d="M130 8V652H60Q37 652 29 667T21 706Q21 729 29 744T60 760H182Q217 760 231 745T245 697V-37Q245 -70 231 -85T182 -100H60Q37 -100 29 -85T21 -46Q21 -24 29 -8T60 8H130Z" />
<glyph unicode="^" glyph-name="asciicircum" horiz-adv-x="606" d="M249 682Q261 705 274 711T303 718Q319 718 332 712T357 682L531 367Q537 356 540 347T543 329Q543 317 533 307T498 296Q478 297 465 305T439 335L303 582L167 335Q155 313 142 305T108 296Q83
296 73 306T63 329Q63 338 66 347T75 367L249 682Z" />
<glyph unicode="_" glyph-name="underscore" horiz-adv-x="506" d="M3 -125Q-9 -125 -17 -119T-26 -100Q-26 -88 -18 -82T3 -75H503Q515 -75 523 -81T532 -100Q532 -112 524 -118T503 -125H3V-125Z" />
<glyph unicode="`" glyph-name="grave" horiz-adv-x="222" d="M191 707Q205 701 214 688T224 655Q224 632 209 617T170 601Q163 601 157 603T145 607L-12 672Q-26 678 -34 691T-43 721Q-43 744 -27 760T12 777Q25 777 34 773L191 707Z" />
<glyph unicode="a" glyph-name="a" horiz-adv-x="523" d="M30 156Q30 199 46 230T89 282T153 313T230 323Q268 323 298 321T354 313V325Q354 383 325 408T241 434Q214 434 195 429T160 419T134 408T111 403Q102 403 94 409T78 426T67 448T63 471Q63 487 78 501T118
526T175 543T242 549Q361 549 419 493T478 311V38Q478 12 460 3T414 -6Q388 -6 373 3T358 38V66Q332 24 292 8T199 -9Q164 -9 133 1T79 31T43 83T30 156ZM159 163Q159 133 176 115T232 96Q255 96 276 105T314 131T341 171T351 221Q331 226 305 229T255 232Q205
232 182 213T159 163Z" />
<glyph unicode="b" glyph-name="b" horiz-adv-x="576" d="M541 271Q541 209 527 158T485 69T415 12T317 -9Q271 -9 236 10T181 62V38Q181 12 166 3T125 -6Q99 -6 80 3T61 38V726Q61 752 79 761T125 770Q151 770 169 761T188 726V462Q206 497 241 523T335 549Q388
549 426 528T490 470T528 381T541 271ZM413 272Q413 303 407 332T388 382T353 417T300 430Q269 430 248 417T214 383T194 332T188 272Q188 240 194 211T213 160T248 124T300 110Q331 110 352 123T387 159T407 211T413 272Z" />
<glyph unicode="c" glyph-name="c" horiz-adv-x="467" d="M35 271Q35 330 50 381T96 469T173 528T279 549Q309 549 337 543T387 527T423 504T437 476Q437 464 433 452T421 430T406 413T389 406Q378 406 370 409T350 417T322 426T279 430Q247 430 225 417T189 382T169
331T163 271Q163 239 169 210T188 159T223 124T276 110Q301 110 318 113T347 121T369 129T389 133Q397 133 405 127T421 111T432 89T437 66Q437 55 431 47T413 31Q392 15 354 3T270 -9Q213 -9 170 11T96 69T51 157T35 271Z" />
<glyph unicode="d" glyph-name="d" horiz-adv-x="576" d="M35 271Q35 330 48 381T90 469T159 528T257 549Q299 549 332 534T388 495V726Q388 752 406 761T451 770Q477 770 496 761T515 726V38Q515 12 497 3T451 -6Q425 -6 410 3T395 38V73Q376 38 341 15T242 -9Q191
-9 153 11T88 69T49 157T35 271ZM163 272Q163 240 169 211T188 160T223 124T275 110Q305 110 326 123T361 159T381 211T388 272Q388 303 382 332T363 382T328 417T276 430Q245 430 224 417T189 383T169 332T163 272Z" />
<glyph unicode="e" glyph-name="e" horiz-adv-x="536" d="M35 271Q35 330 50 381T96 469T171 528T275 549Q332 549 374 528T445 470T488 386T503 288Q503 262 492 244T455 226H166Q168 205 175 184T196 146T232 119T287 108Q318 108 340 112T378 120T405 129T427
133Q436 133 444 127T460 110T471 88T475 66Q475 43 446 29Q416 13 377 2T276 -9Q216 -9 171 10T96 66T50 155T35 271ZM374 317Q374 339 368 361T350 400T318 429T272 440Q245 440 225 429T192 399T173 359T166 317H374Z" />
<glyph unicode="f" glyph-name="f" horiz-adv-x="356" d="M9 476Q9 499 17 516T50 533H106V569Q106 675 150 722T267 770Q294 770 311 766T337 754T350 733T353 706Q353 684 342 671T295 657Q262 657 248 636T233 565V533H295Q321 533 328 516T336 476Q336 453
329 436T295 418H233V43Q233 13 216 4T170 -6Q141 -6 124 3T106 43V418H50Q26 418 18 435T9 476Z" />
<glyph unicode="g" glyph-name="g" horiz-adv-x="576" d="M35 271Q35 330 48 381T90 469T159 528T257 549Q298 549 336 532T394 473V499Q394 525 409 534T451 543Q477 543 495 534T514 499V44Q514 -26 494 -74T440 -153T358 -196T256 -210Q218 -210 181 -204T113
-186T64 -161T45 -131Q45 -118 49 -105T60 -81T76 -63T94 -56Q106 -56 120 -62T153 -76T198 -90T260 -97Q316 -97 352 -69T388 20V62Q365 33 332 16T255 -2Q198 -2 157 18T88 75T48 161T35 271ZM163 272Q163 240 169 211T188 160T222 124T274 110Q305 110 326 123T361
159T381 211T388 272Q388 303 382 332T363 382T328 417T276 430Q245 430 224 417T189 383T169 332T163 272Z" />
<glyph unicode="h" glyph-name="h" horiz-adv-x="569" d="M61 726Q61 752 80 761T125 770Q151 770 169 761T188 726V479Q213 511 247 530T340 549Q373 549 403 538T458 504T496 446T510 363V38Q510 12 492 3T447 -6Q420 -6 402 3T383 38V336Q383 382 359 411T290
440Q242 440 215 408T188 320V38Q188 12 170 3T125 -6Q98 -6 80 3T61 38V726Z" />
<glyph unicode="i" glyph-name="i" horiz-adv-x="249" d="M52 679Q52 709 73 730T125 752Q155 752 176 731T198 679Q198 649 177 628T125 606Q95 606 74 627T52 679ZM61 499Q61 525 80 534T125 543Q151 543 169 534T188 499V39Q188 13 170 4T125 -6Q98 -6 80 3T61
39V499Z" />
<glyph unicode="j" glyph-name="j" horiz-adv-x="249" d="M61 488Q61 523 78 533T125 543Q154 543 171 533T188 488V-7Q188 -210 15 -210Q-17 -210 -39 -199T-62 -164Q-62 -151 -58 -138T-47 -115T-31 -98T-11 -91Q10 -91 24 -87T46 -72T58 -44T61 1V488ZM52 679Q52
709 73 730T125 752Q155 752 176 731T198 679Q198 649 177 628T125 606Q95 606 74 627T52 679Z" />
<glyph unicode="k" glyph-name="k" horiz-adv-x="507" d="M61 726Q61 752 80 761T125 770Q151 770 169 761T188 726V326L338 511Q344 519 349 525T362 535T381 541T409 543Q441 543 460 536T479 510Q479 499 474 490T457 463L319 297L481 65Q496 42 496 26Q496
6 477 0T427 -6Q407 -5 390 -2T363 17L188 267V38Q188 12 170 3T125 -6Q98 -6 80 3T61 38V726Z" />
<glyph unicode="l" glyph-name="l" horiz-adv-x="249" d="M61 726Q61 752 80 761T125 770Q151 770 169 761T188 726V38Q188 12 170 3T125 -6Q98 -6 80 3T61 38V726Z" />
<glyph unicode="m" glyph-name="m" horiz-adv-x="870" d="M61 499Q61 525 80 534T125 543Q151 543 166 534T181 499V462Q207 505 243 527T330 549Q373 549 413 529T476 464Q499 500 535 524T632 549Q669 549 701 538T758 504T797 446T811 363V41Q811 14 794 4T748
-6Q720 -6 703 3T685 41V336Q685 387 661 413T603 439Q582 439 564 432T531 410T509 373T500 320V38Q500 12 482 3T436 -6Q410 -6 392 3T373 38V336Q373 380 351 410T285 440Q239 440 214 407T188 320V38Q188 12 170 3T125 -6Q98 -6 80 3T61 38V499Z" />
<glyph unicode="n" glyph-name="n" horiz-adv-x="569" d="M61 499Q61 525 80 534T125 543Q151 543 166 534T181 499V462Q207 505 244 527T340 549Q373 549 403 538T458 504T496 446T510 363V38Q510 12 492 3T447 -6Q420 -6 402 3T383 38V336Q383 382 359 411T290
440Q242 440 215 408T188 320V38Q188 12 170 3T125 -6Q98 -6 80 3T61 38V499Z" />
<glyph unicode="o" glyph-name="o" horiz-adv-x="552" d="M35 271Q35 330 50 381T96 469T172 528T276 549Q335 549 380 528T455 470T501 381T517 271Q517 209 502 158T455 69T379 12T276 -9Q217 -9 172 11T97 69T51 157T35 271ZM163 272Q163 240 169 211T188 160T223
124T276 110Q307 110 328 123T362 159T382 211T388 272Q388 303 382 332T363 382T328 417T276 430Q245 430 224 417T189 383T169 332T163 272Z" />
<glyph unicode="p" glyph-name="p" horiz-adv-x="576" d="M541 271Q541 209 527 158T485 69T415 12T317 -9Q276 -9 242 8T188 52V-166Q188 -192 170 -201T125 -210Q99 -210 80 -201T61 -166V499Q61 525 79 534T125 543Q151 543 166 534T181 499V457Q202 498 239
523T340 549Q391 549 429 528T491 470T528 381T541 271ZM413 272Q413 303 407 332T388 382T353 417T300 430Q269 430 248 417T214 383T194 332T188 272Q188 240 194 211T213 160T248 124T300 110Q331 110 352 123T387 159T407 211T413 272Z" />
<glyph unicode="q" glyph-name="q" horiz-adv-x="553" d="M39 271Q39 330 53 381T94 469T164 528T263 549Q304 549 341 532T398 473V496Q398 525 413 534T455 543Q482 543 500 534T518 496V-161Q518 -191 501 -200T455 -210Q426 -210 409 -201T392 -161V64Q372
30 339 11T248 -9Q197 -9 158 11T92 69T53 157T39 271ZM168 272Q168 240 174 211T193 160T227 124T278 110Q309 110 331 123T366 159T386 211T392 272Q392 303 386 332T367 382T332 417T280 430Q249 430 228 417T193 383T174 332T168 272Z" />
<glyph unicode="r" glyph-name="r" horiz-adv-x="376" d="M53 499Q53 525 72 534T117 543Q143 543 158 534T173 499V462Q180 474 192 489T220 518T259 540T309 549Q346 549 356 531T366 486Q366 460 356 441T309 422Q281 422 258 418T217 401T190 370T180 320V38Q180
12 162 3T117 -6Q90 -6 72 3T53 38V499Z" />
<glyph unicode="s" glyph-name="s" horiz-adv-x="461" d="M230 -8Q186 -8 146 2T82 25Q78 27 70 31T54 42T39 57T33 74Q33 86 37 98T49 120T66 136T86 143Q96 143 108 137T138 124T177 111T230 105Q267 105 282 118T297 154Q297 166 292 175T275 194T243 212T193
233Q155 248 128 263T82 298T55 340T46 396Q46 429 60 457T99 505T160 537T240 549Q272 549 303 543T359 525T399 500T415 471Q415 460 411 448T400 426T383 410T363 403Q352 403 341 408T317 419T285 431T241 436Q213 436 194 426T174 387Q174 370 190 357T254
323Q299 304 331 287T385 251T415 208T425 155Q425 114 410 84T369 33T307 2T230 -8Z" />
<glyph unicode="t" glyph-name="t" horiz-adv-x="384" d="M10 477Q10 501 19 517T52 534H107V627Q107 657 124 666T170 676Q199 676 216 667T234 627V534H328Q354 534 361 517T368 477Q368 454 361 437T328 420H234V207Q234 153 248 130T297 107Q333 107 343 93T354
58Q354 42 351 30T338 10T310 -2T264 -6Q213 -6 183 10T135 53T113 117T107 195V420H52Q28 420 19 436T10 477Z" />
<glyph unicode="u" glyph-name="u" horiz-adv-x="556" d="M54 499Q54 525 72 534T117 543Q143 543 161 534T180 499V212Q180 159 208 134T278 108Q320 108 348 133T376 212V499Q376 525 394 534T439 543Q465 543 483 534T502 499V190Q502 140 485 103T437 40T366
3T278 -9Q231 -9 191 3T120 40T72 102T54 190V499Z" />
<glyph unicode="v" glyph-name="v" horiz-adv-x="485" d="M19 473Q16 481 13 491T10 512Q10 531 28 537T75 543Q95 543 115 537T144 508L242 196L341 508Q349 531 369 537T410 543Q438 543 456 537T475 511Q475 501 472 491T466 473L302 29Q294 7 282 1T242 -6Q218
-6 206 -1T184 28L19 473Z" />
<glyph unicode="w" glyph-name="w" horiz-adv-x="699" d="M26 464Q18 488 18 506Q18 529 34 536T86 543Q108 543 123 537T144 508L216 205L289 502Q296 529 309 536T350 543Q377 543 390 536T411 502L483 205L555 510Q560 532 575 537T613 543Q648 543 664 536T681
506Q681 488 673 464L545 27Q538 4 525 -1T485 -6Q460 -6 446 -1T427 27L350 332L271 28Q265 5 252 0T212 -6Q184 -6 172 0T155 26L26 464Z" />
<glyph unicode="x" glyph-name="x" horiz-adv-x="504" d="M420 -6Q398 -6 379 -3T349 16L246 174L155 16Q145 1 125 -2T85 -6Q59 -6 40 0T20 26Q20 43 35 63L178 274L43 464Q34 477 28 489T22 512Q22 530 39 536T89 543Q124 543 139 536T166 511L254 377L339 511Q351
529 366 536T414 543Q446 543 463 537T481 512Q481 501 477 492T461 466L323 275L466 67Q475 54 479 45T484 26Q484 6 467 0T420 -6Z" />
<glyph unicode="y" glyph-name="y" horiz-adv-x="485" d="M19 473Q16 481 13 491T10 512Q10 532 28 537T75 543Q95 543 115 537T144 508L242 199L341 508Q349 531 369 537T410 543Q438 543 456 537T475 511Q475 501 472 491T466 473L223 -179Q215 -198 199 -204T150
-210Q124 -210 107 -204T90 -178Q90 -167 93 -158T101 -138L179 48L19 473Z" />
<glyph unicode="z" glyph-name="z" horiz-adv-x="485" d="M275 424H81Q57 424 49 441T40 483Q40 506 48 523T81 541H403Q415 541 423 534T437 517T446 496T449 478Q449 461 437 445L205 117H416Q439 117 448 100T457 58Q457 35 448 18T416 0H85Q74 0 65 7T48 24T36
46T32 65Q32 78 43 95L275 424Z" />
<glyph unicode="{" glyph-name="braceleft" horiz-adv-x="350" d="M228 -100Q169 -100 138 -71T107 23V196Q107 249 93 267T49 286Q29 286 22 298T15 327Q15 343 22 355T49 367Q79 367 93 385T107 458V611Q107 676 138 718T228 760H290Q312 760 320 745T328 706Q328
683 320 668T290 652H258Q235 652 229 640T222 597V444Q222 409 212 387T186 353T154 335T124 328V326Q137 324 154 319T186 301T211 266T222 209V68Q222 8 258 8H290Q312 8 320 -8T328 -46Q328 -69 320 -84T290 -100H228V-100Z" />
<glyph unicode="|" glyph-name="bar" horiz-adv-x="275" d="M87 733Q87 754 102 762T137 770Q158 770 173 762T188 733V-45Q188 -65 173 -73T137 -81Q117 -81 102 -74T87 -46V733Z" />
<glyph unicode="}" glyph-name="braceright" horiz-adv-x="350" d="M60 -100Q38 -100 30 -85T21 -46Q21 -24 29 -8T60 8H92Q128 8 128 68V209Q128 244 138 266T164 301T196 319T226 326V328Q213 329 196 334T164 352T139 387T128 444V597Q128 627 121 639T92 652H60Q38
652 30 667T21 706Q21 729 29 744T60 760H122Q180 760 211 718T243 611V458Q243 404 256 386T301 367Q321 367 328 355T335 327Q335 311 328 299T301 286Q270 286 257 268T243 196V23Q243 -42 212 -71T122 -100H60Z" />
<glyph unicode="~" glyph-name="asciitilde" horiz-adv-x="606" d="M93 189Q73 189 57 201T41 232Q41 253 52 276T84 319T131 350T188 363Q220 363 250 352T307 328T359 304T406 293Q428 293 442 303T466 325T487 348T513 358Q533 358 550 344T568 312Q568 291
557 268T524 227T475 196T414 184Q382 184 353 195T297 219T246 243T200 254Q178 254 165 244T140 222T119 199T93 189Z" />
</font>
</defs>
</svg>
