<?xml version="1.0" standalone="no"?> <!DOCTYPE svg PUBLIC "-//W3C//DTD SVG 1.0//EN" "http://www.w3.org/TR/2001/REC-SVG-20010904/DTD/svg10.dtd" > <svg xmlns="http://www.w3.org/2000/svg" width="100%" height="100%">
<defs >
<font id="NetworkTT-Display" horiz-adv-x="495" ><font-face
    font-family="Network TT"
    units-per-em="1000"
    panose-1="2 11 6 0 3 0 0 2 0 3"
    ascent="770"
    descent="-230"
    alphabetic="0" />
<missing-glyph horiz-adv-x="496" d="M-2 700H498V0H-2V700ZM418 650H78L248 395L418 650ZM448 95V605L278 350L448 95ZM418 50L248 305L78 50H418ZM48 95L218 350L48 605V95Z" />
<glyph unicode=" " glyph-name="space" horiz-adv-x="259" />
<glyph unicode="!" glyph-name="exclam" horiz-adv-x="265" d="M75 673Q75 696 92 705T132 715Q156 715 172 706T189 673V259Q189 235 173 219T132 202Q109 202 92 218T75 259V673ZM63 58Q63 87 83 107T132 128Q161 128 181 108T202 58Q202 29 182 9T132 -11Q104
-11 84 9T63 58Z" />
<glyph unicode="&quot;" glyph-name="quotedbl" horiz-adv-x="394" d="M67 673Q67 697 80 706T116 715Q138 715 152 706T166 673V502Q166 478 152 469T116 459Q94 459 81 468T67 502V673ZM228 673Q228 697 241 706T277 715Q299 715 313 706T327 673V502Q327 478
313 469T277 459Q255 459 242 468T228 502V673Z" />
<glyph unicode="#" glyph-name="numbersign" horiz-adv-x="564" d="M125 208H66Q46 208 39 219T31 247Q31 262 38 274T66 286H136L155 425H96Q76 425 69 437T61 464Q61 480 68 491T96 503H166L192 684Q194 701 203 708T234 715Q251 715 261 709T272 687Q272 682
271 674T268 655L246 503H357L383 684Q385 701 394 708T426 715Q442 715 453 709T464 687Q464 682 463 674T460 655L438 503H498Q518 503 525 492T533 464Q533 449 526 437T498 425H427L408 286H468Q488 286 495 274T503 247Q503 232 496 220T468 208H397L372 29Q369
12 360 5T329 -3Q313 -3 302 3T291 25Q291 30 292 38T295 57L316 208H205L180 29Q178 12 169 5T138 -3Q122 -3 111 3T100 25Q100 30 101 38T104 57L125 208ZM216 286H327L346 425H235L216 286Z" />
<glyph unicode="$" glyph-name="dollar" horiz-adv-x="492" d="M23 77Q23 87 27 99T38 122T54 140T72 147Q82 147 96 139T128 121T172 102T230 91V316Q225 319 219 321T208 326Q173 341 142 359T87 401T50 458T36 536Q36 578 50 611T91 667T152 705T230 722V764Q230
776 239 785T260 794Q271 794 279 785T288 765V721Q315 718 343 711T394 694T432 669T447 639Q447 630 443 619T432 598T416 580T395 573Q386 573 376 578T354 591T326 605T288 616V420H289Q331 400 366 380T425 335T463 277T477 200Q477 115 428 62T288 -6V-53Q288
-64 280 -72T260 -81Q248 -81 239 -73T230 -53V-11H228Q192 -11 155 -3T89 17T42 46T23 77ZM151 543Q151 508 171 488T230 448V619Q189 614 170 594T151 543ZM359 187Q359 219 341 242T288 286V96Q326 106 342 131T359 187Z" />
<glyph unicode="%" glyph-name="percent" horiz-adv-x="709" d="M181 389Q149 389 121 401T71 436T38 489T26 554Q26 590 38 621T72 674T122 710T181 723Q212 723 240 710T290 675T323 621T336 554Q336 519 324 489T290 437T241 402T181 389ZM527 -11Q495 -11
467 1T417 36T384 89T372 154Q372 190 384 221T418 274T468 310T527 323Q558 323 586 310T636 275T669 221T682 154Q682 119 670 89T636 37T587 2T527 -11ZM527 76Q543 76 554 82T574 100T586 125T590 153Q590 188 573 211T527 234Q498 234 481 211T464 153Q464
139 468 125T480 100T499 83T527 76ZM181 476Q197 476 208 483T228 501T240 526T244 554Q244 588 227 611T181 635Q152 635 135 612T118 554Q118 540 122 526T134 501T153 483T181 476ZM471 699Q479 716 489 722T524 728Q541 728 553 722T565 698Q565 690 557 674T543
648L237 12Q228 -5 218 -11T182 -17Q165 -17 154 -11T142 12Q142 21 150 37T163 63L471 699Z" />
<glyph unicode="&amp;" glyph-name="ampersand" horiz-adv-x="673" d="M242 -8Q143 -8 87 45T31 190Q31 228 43 260T77 319T126 370T185 414Q159 447 138 487T117 569Q117 641 164 680T290 719Q364 719 410 681T456 575Q456 551 450 529T428 486T389 442T330 394L457
237Q483 266 515 304Q525 316 532 323T547 335T564 341T586 343Q642 343 642 310Q642 297 624 277T582 228L521 159L584 82Q593 71 605 55T618 29Q618 12 602 5T562 -3Q535 -4 523 2T497 26L449 86Q421 60 396 42T346 13T296 -3T242 -8ZM245 88Q263 88 279 91T312
104T347 127T387 162L247 336Q198 301 173 268T148 192Q148 145 174 117T245 88ZM222 567Q222 543 236 518T271 467Q316 496 333 520T351 570Q351 599 334 617T285 635Q259 635 241 617T222 567Z" />
<glyph unicode="&apos;" glyph-name="quotesingle" horiz-adv-x="218" d="M60 673Q60 697 73 706T109 715Q131 715 145 706T159 673V502Q159 478 145 469T109 459Q87 459 74 468T60 502V673Z" />
<glyph unicode="(" glyph-name="parenleft" horiz-adv-x="277" d="M197 -111Q180 -111 169 -101T146 -70Q126 -36 107 5T73 96T49 204T39 330Q39 397 48 455T73 562T107 653T146 729Q157 749 168 759T197 770Q207 770 217 765T235 753T248 736T253 718Q253 707
247 696T236 674Q223 651 207 616T177 537T154 440T144 330Q144 272 153 220T177 123T207 43T236 -16Q241 -26 247 -37T253 -60Q253 -69 248 -78T235 -94T217 -106T197 -111Z" />
<glyph unicode=")" glyph-name="parenright" horiz-adv-x="277" d="M89 -111Q79 -111 69 -107T51 -95T38 -78T33 -60Q33 -49 38 -38T50 -16Q63 7 79 42T109 122T132 219T142 330Q142 388 133 440T109 536T79 616T50 674Q44 685 39 696T33 718Q33 727 38 736T51
752T69 765T89 770Q106 770 117 760T140 729Q160 695 179 654T213 563T237 455T246 330Q246 263 237 205T213 97T179 6T140 -70Q128 -90 117 -100T89 -111Z" />
<glyph unicode="*" glyph-name="asterisk" horiz-adv-x="384" d="M130 534Q111 543 93 549T61 563T37 580T28 603Q28 620 39 632T70 644Q77 644 84 642T102 633T126 615T161 588Q155 633 153 650T150 678Q150 698 162 708T192 718Q209 718 221 708T234 678Q234
668 231 651T222 588Q244 604 259 615T284 632T300 641T313 644Q333 644 344 632T356 600Q356 580 332 568T254 534Q278 523 296 516T328 501T349 486T356 467Q356 448 345 436T313 423Q307 423 301 425T284 434T259 452T222 479Q225 457 227 442T230 417T233 401T234
390Q234 370 222 360T192 350Q174 350 162 360T150 390Q150 395 150 401T152 417T156 442T161 479Q123 451 105 437T70 423Q50 423 39 435T28 467Q28 488 54 500T130 534Z" />
<glyph unicode="+" glyph-name="plus" horiz-adv-x="596" d="M248 229H69Q49 229 40 244T31 279Q31 299 40 313T69 328H248V509Q248 529 263 537T298 546Q318 546 332 538T347 509V328H527Q547 328 556 314T565 279Q565 259 556 244T527 229H347V49Q347 29 333
20T298 11Q278 11 263 20T248 49V229Z" />
<glyph unicode="," glyph-name="comma" horiz-adv-x="255" d="M84 85Q92 99 103 110T134 121Q160 121 178 105T196 69Q196 58 192 47T181 24L113 -97Q102 -116 91 -128T62 -140Q33 -140 16 -124T-2 -88Q-2 -70 11 -48L84 85Z" />
<glyph unicode="-" glyph-name="hyphen" horiz-adv-x="385" d="M315 322Q335 322 343 308T352 273Q352 253 344 238T315 223H70Q50 223 42 238T33 273Q33 293 41 307T70 322H315Z" />
<glyph unicode="." glyph-name="period" horiz-adv-x="255" d="M58 58Q58 87 78 107T127 128Q156 128 176 108T197 58Q197 29 177 9T127 -11Q99 -11 79 9T58 58Z" />
<glyph unicode="/" glyph-name="slash" horiz-adv-x="395" d="M261 739Q266 756 277 763T314 770Q357 770 357 735Q357 727 354 715T349 695L134 -51Q129 -68 118 -74T82 -81Q59 -81 49 -72T38 -48Q38 -40 40 -29T45 -11L261 739Z" />
<glyph unicode="0" glyph-name="zero" horiz-adv-x="554" d="M35 356Q35 442 50 510T95 625T170 698T276 723Q337 723 382 698T458 626T503 510T518 356Q518 270 503 202T458 87T383 14T276 -11Q215 -11 170 14T95 86T50 202T35 356ZM158 356Q158 307 162 261T179
179T215 122T276 100Q314 100 337 121T373 179T390 261T395 356Q395 404 391 450T374 532T338 590T276 612Q238 612 215 590T179 532T162 450T158 356Z" />
<glyph unicode="1" glyph-name="one" horiz-adv-x="477" d="M217 105V561L130 497Q121 490 111 485T89 480Q79 480 69 486T51 503T38 523T33 543Q33 557 39 566T60 584L234 705Q242 710 255 712T282 715Q302 715 318 707T334 678V105H427Q449 105 457 90T466 52Q466
31 458 16T427 0H97Q75 0 67 15T58 52Q58 74 66 89T96 105H217Z" />
<glyph unicode="2" glyph-name="two" horiz-adv-x="485" d="M94 0Q73 0 58 15T42 52Q42 110 63 156T117 241T186 313T256 379T309 445T331 518Q331 560 306 587T238 615Q200 615 177 600T131 553Q122 540 113 533T89 525Q79 525 69 530T49 544T34 564T28 586Q28
600 37 615T60 647Q89 680 133 701T240 723Q284 723 321 708T386 667T429 603T445 521Q445 470 425 428T374 351T308 284T242 224T192 167T171 108H407Q433 108 442 91T452 54Q452 33 443 17T407 0H94Z" />
<glyph unicode="3" glyph-name="three" horiz-adv-x="505" d="M231 -11Q194 -11 158 -3T94 17T48 46T30 77Q30 87 34 99T45 122T61 140T79 147Q90 147 103 139T133 122T175 105T231 97Q283 97 313 126T344 208Q344 239 333 261T302 296T258 315T205 321Q176 321
167 337T157 375Q157 398 166 413T205 429Q226 429 246 436T283 457T309 488T319 527Q319 562 298 588T228 615Q202 615 182 609T145 594T115 580T91 573Q79 573 70 580T54 597T44 618T40 638Q40 649 46 660T67 679Q98 698 140 710T230 723Q276 723 314 710T379
673T421 616T436 543Q436 481 405 443T330 386Q395 367 432 322T470 201Q470 154 453 116T405 49T330 5T231 -11Z" />
<glyph unicode="4" glyph-name="four" horiz-adv-x="549" d="M533 223Q533 201 524 186T493 170H441V44Q441 14 426 4T384 -6Q358 -6 343 4T327 43V170H89Q79 170 68 176T48 191T34 210T28 229Q28 242 33 254L191 686Q197 703 211 709T245 715Q268 715 287 706T306
678Q306 670 304 662T297 644L161 275H327V467Q327 491 344 500T384 509Q408 509 424 500T441 467V275H493Q515 275 524 260T533 223Z" />
<glyph unicode="5" glyph-name="five" horiz-adv-x="517" d="M225 -11Q194 -11 161 -3T101 17T57 46T39 77Q39 87 43 99T53 122T69 140T88 147Q99 147 111 140T140 124T178 108T230 100Q284 100 312 136T341 239Q341 293 314 326T231 359Q212 359 197 355T169
346T145 337T124 333Q115 333 104 338T84 351T68 369T62 388Q62 392 62 395T63 404L94 664Q97 687 107 699T144 712H406Q432 712 441 696T451 658Q451 635 440 620T406 604H189L172 440Q189 450 217 456T273 463Q317 463 353 446T414 398T453 327T467 239Q467 183
450 137T402 58T325 7T225 -11Z" />
<glyph unicode="6" glyph-name="six" horiz-adv-x="522" d="M262 -8Q203 -8 160 12T90 67T49 146T35 237Q35 295 48 355T92 475T169 593T283 709Q302 723 316 723Q326 723 337 717T357 700T373 678T379 654Q379 648 376 641T363 627Q326 596 280 551T198 441Q239
466 289 466Q337 466 374 449T436 400T473 327T486 234Q486 187 472 144T429 66T359 12T262 -8ZM259 103Q304 103 333 136T363 232Q363 292 336 327T260 362Q211 362 185 329T158 232Q158 206 164 183T182 142T214 114T259 103Z" />
<glyph unicode="7" glyph-name="seven" horiz-adv-x="465" d="M163 -6Q137 -6 123 0T108 25Q108 33 110 41T116 58L316 604H49Q26 604 17 619T8 657Q8 680 16 696T47 712H400Q408 712 416 705T432 689T443 668T448 647Q448 639 446 630T439 611L225 22Q218 5 205
0T163 -6Z" />
<glyph unicode="8" glyph-name="eight" horiz-adv-x="529" d="M264 -11Q209 -11 167 7T95 55T50 126T35 213Q35 271 63 321T141 395Q112 412 88 449T64 540Q64 581 79 614T121 672T184 709T264 723Q307 723 343 710T407 672T449 615T464 540Q464 513 457 490T440
449T415 417T388 395Q439 370 466 321T493 213Q493 167 478 127T433 56T362 7T264 -11ZM264 438Q306 438 326 464T347 529Q347 566 325 592T264 618Q226 618 204 592T181 530Q181 492 201 465T264 438ZM264 100Q290 100 309 110T342 138T363 178T370 224Q370 248
363 270T343 308T309 335T264 345Q238 345 219 335T186 309T165 270T158 224Q158 201 165 179T185 139T218 111T264 100Z" />
<glyph unicode="9" glyph-name="nine" horiz-adv-x="522" d="M259 723Q318 723 361 703T431 648T472 569T486 478Q486 419 473 359T429 240T352 122T239 6Q222 -8 205 -8Q195 -8 184 -2T164 15T148 37T142 60Q142 75 158 88Q176 103 197 121T241 163T284 213T323
273Q283 248 232 248Q184 248 147 265T85 314T48 387T35 481Q35 527 49 571T92 648T162 702T259 723ZM263 612Q217 612 188 579T159 483Q159 423 186 388T262 353Q311 353 337 386T363 483Q363 508 357 531T339 573T307 601T263 612Z" />
<glyph unicode=":" glyph-name="colon" horiz-adv-x="255" d="M58 376Q58 405 78 425T127 446Q156 446 176 426T197 376Q197 347 177 327T127 307Q99 307 79 327T58 376ZM58 58Q58 87 78 107T127 128Q156 128 176 108T197 58Q197 29 177 9T127 -11Q99 -11 79 9T58 58Z" />
<glyph unicode=";" glyph-name="semicolon" horiz-adv-x="255" d="M58 376Q58 405 78 425T127 446Q156 446 176 426T197 376Q197 347 177 327T127 307Q99 307 79 327T58 376ZM84 85Q92 99 103 110T134 121Q160 121 178 105T196 69Q196 58 192 47T181 24L113 -97Q102
-116 91 -128T62 -140Q33 -140 16 -124T-2 -88Q-2 -70 11 -48L84 85Z" />
<glyph unicode="&lt;" glyph-name="less" horiz-adv-x="596" d="M26 263Q26 277 31 287T53 306L489 526Q497 530 507 533T526 537Q542 537 550 526T558 496Q558 473 553 462T529 441L169 263L527 85Q548 74 553 63T558 31Q558 -10 526 -10Q516 -10 506 -7T486
2L53 220Q36 228 31 238T26 263Z" />
<glyph unicode="=" glyph-name="equal" horiz-adv-x="596" d="M527 427Q547 427 556 413T565 378Q565 358 556 343T527 328H68Q48 328 40 343T31 378Q31 398 39 412T68 427H527ZM527 208Q547 208 556 193T565 158Q565 138 556 124T527 109H68Q48 109 40 123T31
158Q31 178 39 193T68 208H527Z" />
<glyph unicode="&gt;" glyph-name="greater" horiz-adv-x="596" d="M569 263Q569 249 565 239T543 220L109 2Q101 -3 91 -6T70 -10Q38 -10 38 31Q38 52 43 63T69 85L426 263L67 441Q47 450 43 461T38 496Q38 515 45 526T70 537Q79 537 88 534T106 526L543 306Q560
298 564 288T569 263Z" />
<glyph unicode="?" glyph-name="question" horiz-adv-x="445" d="M140 356Q140 379 153 395T198 416Q249 425 277 450T306 517Q306 560 281 587T213 615Q176 615 152 599T106 553Q96 540 86 533T62 525Q52 525 42 530T23 544T9 562T3 583Q3 599 11 615T34 647Q63
680 109 701T215 723Q259 723 296 708T361 667T404 604T420 523Q420 479 408 446T373 388T320 349T254 325V257Q254 234 238 217T197 200Q174 200 157 217T140 257V356ZM128 58Q128 87 148 107T197 128Q226 128 246 108T267 58Q267 29 247 9T197 -11Q169 -11 149
9T128 58Z" />
<glyph unicode="@" glyph-name="at" horiz-adv-x="887" d="M329 208Q329 115 402 115Q432 115 456 133T499 179T526 240T536 304Q536 336 519 357T466 379Q434 379 409 363T366 321T339 265T329 208ZM458 -174Q370 -174 293 -142T157 -54T66 80T32 246Q32 334
65 410T155 542T290 631T455 664Q539 664 612 638T739 564T824 449T855 298Q855 221 829 168T763 80T678 31T597 16Q552 16 531 38T509 97Q490 65 454 42T371 19Q300 19 261 68T221 197Q221 251 238 301T287 390T359 452T448 475Q493 475 523 457T571 397L584 433Q590
450 603 455T631 461Q649 461 661 453T673 427Q673 422 672 415T668 397L606 180Q603 170 601 157T598 135Q598 123 604 113T630 103Q648 103 672 114T717 148T754 204T770 282Q770 354 746 409T680 501T579 558T453 577Q385 577 325 551T219 480T148 374T122 244Q122
171 148 110T220 5T327 -63T457 -88Q509 -88 547 -80T613 -60T662 -34T699 -8Q709 0 717 6T736 13Q744 13 752 8T767 -4T778 -20T782 -36Q782 -44 780 -49T767 -62Q748 -79 720 -98T653 -135T566 -163T458 -174Z" />
<glyph unicode="A" glyph-name="A" horiz-adv-x="588" d="M419 167H169L127 23Q121 3 106 -1T72 -6Q48 -6 29 2T10 34Q10 44 13 52L193 601Q205 637 213 660T232 695T257 713T294 718Q317 718 331 713T355 696T375 660T396 601L575 54Q578 45 578 34Q578 10 559
2T515 -6Q496 -6 482 -1T461 24L419 167ZM201 275H387L294 591L201 275Z" />
<glyph unicode="B" glyph-name="B" horiz-adv-x="545" d="M62 653Q62 712 121 712H285Q340 712 378 697T440 657T474 598T485 529Q485 470 452 434T369 384Q441 370 476 323T512 203Q512 164 500 128T461 63T391 17T286 0H121Q62 0 62 58V653ZM179 420H256Q278
420 298 426T334 445T359 475T368 515Q368 557 342 582T261 607H179V420ZM179 105H273Q331 105 361 130T392 211Q392 263 360 290T272 318H179V105Z" />
<glyph unicode="C" glyph-name="C" horiz-adv-x="573" d="M326 -11Q251 -11 196 14T106 88T53 204T35 356Q35 439 53 506T109 622T205 696T342 723Q378 723 414 715T480 693T529 662T548 627Q548 618 544 607T533 586T517 569T497 562Q486 562 473 570T443 588T401
606T341 615Q284 615 249 592T194 532T168 449T161 356Q161 309 167 263T193 180T246 120T336 97Q372 97 398 104T444 119T476 135T501 142Q509 142 517 135T532 118T543 97T547 78Q547 61 527 45T476 17T405 -3T326 -11Z" />
<glyph unicode="D" glyph-name="D" horiz-adv-x="626" d="M62 653Q62 712 121 712H299Q383 712 439 682T528 603T576 489T590 356Q590 275 573 210T520 98T429 26T296 0H121Q62 0 62 58V653ZM179 108H281Q337 108 372 127T428 181T456 261T464 362Q464 410 457
454T429 531T375 584T286 604H179V108Z" />
<glyph unicode="E" glyph-name="E" horiz-adv-x="479" d="M59 653Q59 712 118 712H426Q448 712 457 696T466 658Q466 635 457 620T426 604H177V410H351Q374 410 382 395T391 356Q391 334 383 318T351 302H176V108H426Q448 108 457 92T466 54Q466 31 457 16T426
0H118Q59 0 59 58V653Z" />
<glyph unicode="F" glyph-name="F" horiz-adv-x="456" d="M59 653Q59 712 118 712H426Q449 712 457 696T466 658Q466 635 458 620T426 604H176V410H352Q374 410 382 395T391 356Q391 334 383 318T352 302H176V37Q176 12 159 3T118 -6Q93 -6 76 3T59 37V653Z" />
<glyph unicode="G" glyph-name="G" horiz-adv-x="631" d="M529 381Q575 381 589 364T603 304V236Q603 179 584 133T530 55T443 6T328 -11Q253 -11 198 14T107 88T53 204T35 356Q35 439 53 506T110 622T207 696T347 723Q384 723 422 715T490 693T540 662T559 627Q559
618 555 607T543 586T527 569T508 562Q496 562 484 570T453 588T408 606T345 615Q286 615 250 592T194 532T168 449T161 356Q161 309 167 263T193 180T246 120T336 97Q409 97 448 133T487 233V273H388Q360 273 351 288T341 327Q341 352 350 366T388 381H529Z" />
<glyph unicode="H" glyph-name="H" horiz-adv-x="646" d="M179 38Q179 13 162 4T121 -5Q96 -5 79 4T62 38V672Q62 696 79 705T121 715Q145 715 162 706T179 672V419H466V672Q466 696 483 705T525 715Q549 715 566 706T583 672V38Q583 13 566 4T525 -5Q500 -5 483
4T466 38V311H179V38Z" />
<glyph unicode="I" glyph-name="I" horiz-adv-x="393" d="M77 620Q51 620 42 633T33 666Q33 685 41 698T69 712H323Q343 712 351 699T360 666Q360 646 352 633T323 620H255V92H323Q343 92 351 79T360 46Q360 26 352 13T323 0H69Q49 0 41 13T33 46Q33 65 41 78T69
92H138V620H77Z" />
<glyph unicode="J" glyph-name="J" horiz-adv-x="422" d="M244 672Q244 696 261 705T303 715Q327 715 344 706T361 672V192Q361 151 353 114T323 49T266 5T174 -11Q144 -11 115 -3T63 17T25 44T11 73Q11 83 15 95T26 118T41 135T59 142Q70 142 80 136T103 121T131
107T168 100Q213 100 228 126T244 206V672Z" />
<glyph unicode="K" glyph-name="K" horiz-adv-x="546" d="M176 409L390 687Q400 701 412 708T454 715Q480 715 495 709T511 683Q511 672 504 659T490 638L282 373L513 78Q524 64 531 51T538 26Q538 9 523 2T482 -6Q454 -6 442 0T418 21L176 331V37Q176 12 159
3T118 -6Q93 -6 76 3T59 37V672Q59 696 76 705T118 715Q142 715 159 706T176 672V409Z" />
<glyph unicode="L" glyph-name="L" horiz-adv-x="446" d="M59 672Q59 696 76 705T118 715Q142 715 159 706T176 672V108H401Q424 108 432 92T441 54Q441 31 433 16T401 0H118Q59 0 59 58V672Z" />
<glyph unicode="M" glyph-name="M" horiz-adv-x="802" d="M684 636Q707 490 723 389T750 221T767 118T776 63T779 39T780 32Q780 11 761 3T717 -6Q694 -6 679 0T661 26L590 541L471 67Q460 25 445 13T401 0Q372 0 357 12T331 67L211 541L140 26Q137 6 122 0T84
-6Q60 -6 41 2T22 30Q22 35 22 40T24 52L117 636Q121 662 127 677T144 701T170 712T208 715Q245 715 263 699T293 633L401 176L509 633Q521 683 540 699T595 715Q617 715 632 713T657 702T674 678T684 636Z" />
<glyph unicode="N" glyph-name="N" horiz-adv-x="646" d="M62 676Q62 695 76 705T113 715Q139 715 153 706T177 683L466 232V672Q466 696 483 705T525 715Q549 715 566 706T583 672V38Q583 14 569 4T534 -6Q512 -6 498 -1T474 20L179 478V37Q179 12 162 3T121
-6Q96 -6 79 3T62 37V676Z" />
<glyph unicode="O" glyph-name="O" horiz-adv-x="668" d="M334 -11Q257 -11 201 14T107 88T53 204T35 356Q35 437 52 504T107 620T200 696T334 723Q411 723 467 696T560 621T614 505T632 356Q632 272 615 204T561 88T468 15T334 -11ZM334 97Q389 97 422 120T474
180T499 263T506 356Q506 402 500 448T475 532T423 592T334 615Q279 615 245 592T193 532T168 449T161 356Q161 309 167 263T192 180T245 120T334 97Z" />
<glyph unicode="P" glyph-name="P" horiz-adv-x="521" d="M59 652Q59 712 118 712H283Q337 712 378 694T446 645T488 572T503 484Q503 436 490 393T449 319T379 269T276 250H176V37Q176 12 159 3T118 -6Q93 -6 76 3T59 37V652ZM176 355H261Q295 355 318 366T356
395T377 435T383 481Q383 506 377 529T356 569T318 597T261 607H176V355Z" />
<glyph unicode="Q" glyph-name="Q" horiz-adv-x="668" d="M320 -11Q248 -11 195 14T106 88T53 204T35 356Q35 437 52 504T107 620T200 696T334 723Q411 723 467 697T560 622T614 506T632 356Q632 263 606 191T532 71L579 -2Q586 -13 589 -19T592 -35Q592 -54 573
-72T526 -90Q509 -90 499 -78T479 -48L446 13Q389 -11 320 -11ZM334 97Q365 97 392 105L345 181Q340 189 336 198T331 219Q331 229 337 239T353 257T374 269T396 274Q410 274 420 264T439 238L474 173Q493 209 499 256T506 356Q506 402 500 448T475 532T423 592T334
615Q279 615 245 592T193 532T168 449T161 356Q161 309 167 263T192 180T245 120T334 97Z" />
<glyph unicode="R" glyph-name="R" horiz-adv-x="546" d="M59 660Q59 712 111 712H283Q337 712 378 697T446 654T488 590T503 508Q503 432 471 379T367 306L519 71Q527 58 533 48T539 27Q539 10 523 2T481 -6Q452 -6 438 0T413 24L246 294H176V37Q176 12 159 3T118
-6Q93 -6 76 3T59 37V660ZM176 399H261Q330 399 356 429T383 505Q383 550 356 578T261 607H176V399Z" />
<glyph unicode="S" glyph-name="S" horiz-adv-x="503" d="M232 -11Q196 -11 159 -3T93 17T46 46T27 77Q27 87 31 99T42 122T58 140T76 147Q87 147 101 139T134 122T177 105T235 97Q267 97 288 105T323 126T341 157T347 192Q347 236 316 265T212 326Q177 341 146
359T91 401T54 458T40 536Q40 581 57 616T104 674T174 710T262 723Q290 723 323 717T385 700T432 673T451 639Q451 630 447 619T436 598T420 580T399 573Q388 573 376 579T349 594T311 608T259 615Q217 615 192 594T166 541Q166 519 173 504T196 475T236 448T293
420Q335 400 368 380T425 335T461 277T473 200Q473 102 412 46T232 -11Z" />
<glyph unicode="T" glyph-name="T" horiz-adv-x="459" d="M36 604Q13 604 4 619T-5 658Q-5 680 4 696T36 712H423Q446 712 454 696T463 658Q463 635 455 620T423 604H288V37Q288 13 271 4T229 -6Q205 -6 188 3T171 37V604H36Z" />
<glyph unicode="U" glyph-name="U" horiz-adv-x="632" d="M55 672Q55 696 72 705T114 715Q138 715 155 706T172 672V271Q172 186 210 145T316 103Q384 103 422 144T460 271V672Q460 696 477 705T518 715Q543 715 560 706T577 672V267Q577 134 507 63T316 -8Q194
-8 125 63T55 267V672Z" />
<glyph unicode="V" glyph-name="V" horiz-adv-x="552" d="M275 149L442 682Q449 702 464 708T497 715Q521 715 541 708T561 681Q561 669 556 656L376 109Q364 73 355 51T335 16T311 -1T276 -6Q254 -6 241 -2T217 15T197 50T176 109L-5 654Q-7 660 -8 667T-10 681Q-10
701 10 708T56 715Q75 715 89 709T110 682L275 149Z" />
<glyph unicode="W" glyph-name="W" horiz-adv-x="811" d="M16 625Q10 651 9 659T8 675Q8 699 26 707T70 715Q93 715 107 708T125 682L235 171L332 619Q340 659 357 673T405 688Q436 688 453 674T478 619L575 169L686 681Q689 702 703 708T741 715Q765 715 784
707T803 675Q803 666 800 654L666 77Q660 51 653 35T637 10T614 -2T581 -6Q560 -6 546 -3T523 10T507 35T495 77L405 485L315 77Q309 51 303 35T288 10T264 -2T228 -6Q209 -6 196 -3T173 10T157 35T144 77L16 625Z" />
<glyph unicode="X" glyph-name="X" horiz-adv-x="542" d="M271 469L406 680Q418 698 432 706T478 715Q506 715 521 708T536 682Q536 671 529 657T517 636L337 366L516 86Q528 68 536 53T544 27Q544 10 529 2T488 -6Q473 -6 463 -4T445 2T431 13T418 31L266 266L124
29Q111 9 98 2T54 -6Q28 -6 13 1T-2 26Q-2 37 6 51T26 86L199 370L30 632Q20 647 13 659T6 682Q6 701 22 708T64 715Q95 715 109 707T136 680L271 469Z" />
<glyph unicode="Y" glyph-name="Y" horiz-adv-x="524" d="M203 268L8 634Q3 644 -3 657T-9 682Q-9 699 8 707T53 715Q84 715 95 707T114 681L262 387L409 681Q413 690 417 696T428 706T445 713T471 715Q498 715 515 707T533 682Q533 671 527 658T516 634L320 268V42Q320
13 304 4T262 -6Q236 -6 220 3T203 42V268Z" />
<glyph unicode="Z" glyph-name="Z" horiz-adv-x="484" d="M66 0Q56 0 47 6T30 22T18 41T13 60Q13 73 19 85T33 112L316 604H62Q39 604 31 619T22 658Q22 681 30 696T62 712H409Q421 712 430 706T447 689T457 669T461 649Q461 638 455 625T442 602L156 108H430Q452
108 461 92T470 54Q470 31 461 16T430 0H66Z" />
<glyph unicode="[" glyph-name="bracketleft" horiz-adv-x="313" d="M257 -2Q277 -2 286 -16T295 -51Q295 -71 286 -85T257 -100H145Q116 -100 102 -87T88 -43V703Q88 760 145 760H257Q277 760 286 746T295 711Q295 691 286 677T257 662H193V-2H257Z" />
<glyph unicode="\" glyph-name="backslash" horiz-adv-x="395" d="M350 -11Q352 -18 354 -29T357 -48Q357 -63 347 -72T313 -81Q289 -81 278 -75T261 -51L46 695Q44 702 41 714T38 735Q38 770 81 770Q106 770 117 763T134 739L350 -11Z" />
<glyph unicode="]" glyph-name="bracketright" horiz-adv-x="313" d="M120 -2V662H55Q35 662 27 676T18 711Q18 731 26 745T55 760H168Q198 760 211 746T225 703V-43Q225 -100 168 -100H55Q35 -100 27 -86T18 -51Q18 -31 26 -17T55 -2H120Z" />
<glyph unicode="^" glyph-name="asciicircum" horiz-adv-x="596" d="M249 685Q260 705 272 711T298 718Q312 718 324 712T347 685L529 355Q540 336 540 319Q540 306 530 297T498 288Q479 289 467 297T443 326L298 591L152 326Q141 305 129 297T97 288Q76 288 66
297T55 319Q55 336 66 355L249 685Z" />
<glyph unicode="_" glyph-name="underscore" horiz-adv-x="496" d="M-2 -125Q-14 -125 -22 -119T-31 -100Q-31 -88 -23 -82T-2 -75H498Q510 -75 518 -81T527 -100Q527 -112 519 -118T498 -125H-2V-125Z" />
<glyph unicode="`" glyph-name="grave" horiz-adv-x="209" d="M185 698Q199 692 208 680T217 650Q217 629 203 615T168 601Q157 601 145 606L-10 670Q-24 676 -32 688T-40 715Q-40 735 -25 750T11 765Q22 765 30 762L185 698Z" />
<glyph unicode="a" glyph-name="a" horiz-adv-x="515" d="M30 156Q30 199 46 229T91 280T155 309T230 319Q269 319 298 316T354 308V323Q354 387 325 415T238 443Q209 443 189 438T155 427T129 415T107 410Q98 410 90 415T76 430T67 449T63 470Q63 486 77 500T116
524T172 540T239 546Q357 546 411 490T466 309V36Q466 12 450 3T408 -6Q385 -6 371 3T357 36V69Q331 26 291 9T198 -8Q164 -8 134 1T80 31T44 82T30 156ZM147 161Q147 126 166 107T226 88Q250 88 273 98T313 126T341 168T352 223Q331 229 305 232T251 235Q199 235
173 214T147 161Z" />
<glyph unicode="b" glyph-name="b" horiz-adv-x="564" d="M528 269Q528 208 515 157T473 70T403 13T304 -8Q258 -8 224 11T168 63V36Q168 12 154 3T116 -6Q93 -6 76 3T59 36V727Q59 751 75 760T117 770Q140 770 156 761T173 727V456Q191 493 226 519T321 546Q374
546 413 525T477 466T515 378T528 269ZM411 271Q411 304 405 334T385 388T348 426T292 440Q259 440 237 426T200 389T179 335T173 271Q173 238 179 207T199 152T236 113T292 98Q325 98 348 113T385 152T405 207T411 271Z" />
<glyph unicode="c" glyph-name="c" horiz-adv-x="455" d="M35 269Q35 327 50 377T95 465T170 524T276 546Q306 546 334 540T383 525T417 503T430 477Q430 455 416 435T385 415Q375 415 367 419T348 427T320 436T276 440Q241 440 218 426T180 387T159 333T152 269Q152
236 158 206T178 151T215 113T271 98Q297 98 314 102T343 110T365 119T385 123Q393 123 401 118T415 104T426 84T430 63Q430 46 409 31Q389 15 351 4T267 -8Q210 -8 167 12T95 69T50 157T35 269Z" />
<glyph unicode="d" glyph-name="d" horiz-adv-x="564" d="M35 269Q35 327 48 377T89 465T158 524T257 546Q300 546 334 531T390 488V727Q390 751 407 760T447 769Q471 769 487 760T504 727V36Q504 12 488 3T447 -6Q423 -6 409 3T395 36V78Q377 40 342 16T244 -8Q192
-8 153 12T88 69T48 157T35 269ZM152 271Q152 238 158 207T178 152T214 113T270 98Q303 98 325 113T362 152T383 207T390 271Q390 304 384 334T364 388T327 426T271 440Q238 440 216 426T179 389T158 335T152 271Z" />
<glyph unicode="e" glyph-name="e" horiz-adv-x="526" d="M35 269Q35 327 50 377T94 465T167 524T270 546Q327 546 369 525T438 467T479 384T493 286Q493 260 482 244T447 228H155Q157 203 164 180T186 138T224 108T282 97Q313 97 334 101T372 110T399 119T420
123Q429 123 437 118T451 103T461 84T465 63Q465 41 437 28Q408 14 370 3T271 -8Q212 -8 168 12T94 68T50 155T35 269ZM376 311Q376 336 370 360T350 403T317 435T267 447Q239 447 218 435T183 403T162 359T155 311H376Z" />
<glyph unicode="f" glyph-name="f" horiz-adv-x="324" d="M3 482Q3 503 11 518T41 533H96V576Q96 677 137 723T249 770Q274 770 289 766T313 755T325 737T328 713Q328 693 318 680T275 667Q240 667 225 645T210 572V533H271Q295 533 302 518T310 482Q310 462 303
447T271 431H210V42Q210 13 195 4T153 -6Q127 -6 112 3T96 42V431H41Q20 431 12 446T3 482Z" />
<glyph unicode="g" glyph-name="g" horiz-adv-x="563" d="M35 269Q35 327 48 377T89 465T158 524T256 546Q299 546 337 529T395 471V500Q395 523 409 532T447 542Q470 542 487 533T504 500V41Q504 -27 485 -74T431 -150T351 -192T253 -205Q216 -205 179 -199T113
-182T65 -157T46 -126Q46 -114 50 -103T60 -82T75 -67T92 -61Q104 -61 117 -67T150 -82T194 -96T256 -103Q315 -103 352 -74T390 22V65Q367 34 333 16T254 -3Q197 -3 156 17T88 73T48 159T35 269ZM152 271Q152 238 158 207T178 152T214 113T268 98Q301 98 324 113T362
152T383 207T390 271Q390 304 384 334T364 388T327 426T271 440Q238 440 216 426T179 389T158 335T152 271Z" />
<glyph unicode="h" glyph-name="h" horiz-adv-x="550" d="M59 728Q59 751 76 760T116 770Q140 770 156 761T173 728V473Q198 508 232 527T324 546Q357 546 387 535T441 501T479 442T493 359V36Q493 12 477 3T436 -6Q412 -6 396 3T379 36V339Q379 387 354 417T282
447Q232 447 203 412T173 316V36Q173 12 157 3T116 -6Q92 -6 76 3T59 36V728Z" />
<glyph unicode="i" glyph-name="i" horiz-adv-x="233" d="M49 676Q49 705 69 724T116 744Q144 744 164 725T184 676Q184 648 164 629T116 609Q89 609 69 628T49 676ZM59 500Q59 523 76 532T116 542Q140 542 156 533T173 500V37Q173 13 157 4T116 -6Q92 -6 76 3T59
37V500Z" />
<glyph unicode="j" glyph-name="j" horiz-adv-x="233" d="M59 489Q59 521 74 531T116 542Q142 542 157 532T173 489V-10Q173 -110 132 -157T6 -205Q-23 -205 -42 -194T-61 -163Q-61 -139 -48 -119T-13 -98Q9 -98 23 -93T45 -77T56 -48T59 -4V489ZM49 676Q49 705
69 724T116 744Q144 744 164 725T184 676Q184 648 164 629T116 609Q89 609 69 628T49 676Z" />
<glyph unicode="k" glyph-name="k" horiz-adv-x="484" d="M59 728Q59 751 76 760T116 770Q140 770 156 761T173 728V322L337 514Q347 528 358 535T397 542Q425 542 442 534T460 508Q460 497 456 489T440 466L291 293L463 62Q476 43 476 26Q476 8 459 1T415 -6Q396
-6 381 -2T358 15L173 264V36Q173 12 157 3T116 -6Q92 -6 76 3T59 36V728Z" />
<glyph unicode="l" glyph-name="l" horiz-adv-x="233" d="M59 728Q59 751 76 760T116 770Q140 770 156 761T173 728V36Q173 13 157 4T116 -6Q92 -6 76 3T59 36V728Z" />
<glyph unicode="m" glyph-name="m" horiz-adv-x="853" d="M59 500Q59 523 76 532T116 542Q140 542 154 533T168 500V459Q194 504 229 525T316 546Q361 546 400 525T463 457Q486 497 522 521T621 546Q658 546 690 535T745 501T782 442T796 359V38Q796 14 780 4T739
-6Q714 -6 698 3T682 38V339Q682 393 657 419T595 446Q547 446 516 413T485 316V36Q485 13 469 4T428 -6Q404 -6 388 3T371 36V339Q371 386 347 416T278 447Q229 447 201 411T173 316V36Q173 13 157 4T116 -6Q92 -6 76 3T59 36V500Z" />
<glyph unicode="n" glyph-name="n" horiz-adv-x="550" d="M59 500Q59 523 76 532T116 542Q140 542 154 533T168 500V459Q194 504 230 525T324 546Q357 546 387 535T441 501T479 442T493 359V36Q493 12 477 3T436 -6Q412 -6 396 3T379 36V339Q379 387 354 417T282
447Q232 447 203 412T173 316V36Q173 12 157 3T116 -6Q92 -6 76 3T59 36V500Z" />
<glyph unicode="o" glyph-name="o" horiz-adv-x="542" d="M35 269Q35 327 50 377T94 465T168 524T271 546Q330 546 374 525T448 466T492 378T507 269Q507 208 492 157T448 70T374 13T271 -8Q213 -8 169 12T95 69T50 157T35 269ZM152 271Q152 238 158 207T178 152T215
113T271 98Q304 98 326 113T363 152T384 207T390 271Q390 304 384 334T364 388T327 426T271 440Q238 440 216 426T179 389T158 335T152 271Z" />
<glyph unicode="p" glyph-name="p" horiz-adv-x="563" d="M528 269Q528 208 515 157T473 70T403 13T304 -8Q262 -8 228 9T173 55V-163Q173 -187 157 -196T116 -205Q93 -205 76 -196T59 -163V500Q59 523 75 532T117 542Q140 542 154 533T168 500V452Q188 494 225
520T325 546Q377 546 415 525T478 466T515 378T528 269ZM411 271Q411 304 405 334T385 388T348 426T292 440Q259 440 237 426T200 389T179 335T173 271Q173 238 179 207T199 152T236 113T292 98Q325 98 348 113T385 152T405 207T411 271Z" />
<glyph unicode="q" glyph-name="q" horiz-adv-x="561" d="M35 269Q35 327 48 377T89 465T159 524T259 546Q301 546 338 529T395 471V495Q395 522 408 532T447 542Q472 542 488 532T504 495V-157Q504 -186 489 -195T447 -205Q421 -205 406 -196T390 -157V71Q370
34 337 13T245 -8Q193 -8 154 12T88 69T49 157T35 269ZM153 271Q153 238 159 207T179 152T215 113T269 98Q302 98 325 113T363 152T384 207T391 271Q391 304 385 334T365 388T328 426T272 440Q239 440 216 426T179 389T159 335T153 271Z" />
<glyph unicode="r" glyph-name="r" horiz-adv-x="352" d="M54 500Q54 523 71 532T111 542Q135 542 149 533T163 500V459Q172 474 184 489T212 517T250 538T298 546Q332 546 342 530T352 489Q352 466 342 449T298 432Q270 432 246 426T205 407T178 371T168 316V36Q168
12 152 3T111 -6Q87 -6 71 3T54 36V500Z" />
<glyph unicode="s" glyph-name="s" horiz-adv-x="447" d="M221 -8Q177 -8 135 2T70 27Q66 29 59 33T45 44T33 57T28 72Q28 94 43 113T77 133Q88 133 100 127T129 114T168 100T223 94Q264 94 281 110T298 152Q298 165 293 175T275 195T241 214T188 237Q150 252
123 268T77 303T51 345T42 398Q42 431 55 458T93 504T152 535T230 546Q261 546 292 540T347 523T387 499T403 470Q403 460 400 450T390 430T374 416T355 410Q344 410 333 415T308 427T275 438T230 444Q201 444 180 433T158 391Q158 373 174 358T241 322Q286 303
318 286T372 249T404 206T414 153Q414 114 399 84T358 33T297 3T221 -8Z" />
<glyph unicode="t" glyph-name="t" horiz-adv-x="350" d="M0 483Q0 504 9 519T39 534H93V623Q93 652 108 662T150 672Q176 672 191 662T207 623V534H302Q326 534 333 519T340 483Q340 463 333 448T302 432H207V197Q207 145 221 121T274 96Q305 96 315 83T325 50Q325
36 322 26T310 8T285 -2T243 -6Q196 -6 167 8T122 49T99 110T93 188V432H39Q18 432 9 447T0 483Z" />
<glyph unicode="u" glyph-name="u" horiz-adv-x="536" d="M51 500Q51 523 68 532T108 542Q132 542 148 533T165 500V208Q165 151 193 123T268 95Q314 95 342 123T371 208V500Q371 523 387 532T428 542Q451 542 468 533T485 500V186Q485 138 468 102T422 41T354
4T268 -8Q222 -8 183 4T114 40T68 101T51 186V500Z" />
<glyph unicode="v" glyph-name="v" horiz-adv-x="466" d="M15 476Q13 483 11 492T8 509Q8 527 24 534T66 542Q84 542 102 536T127 508L233 179L338 508Q345 529 362 535T399 542Q425 542 441 535T458 509Q458 500 455 491T450 476L286 27Q278 7 267 1T233 -6Q212
-6 200 -1T180 26L15 476Z" />
<glyph unicode="w" glyph-name="w" horiz-adv-x="684" d="M22 467Q19 478 17 487T15 505Q15 525 30 533T76 542Q96 542 110 536T129 507L207 189L287 504Q293 527 305 534T342 542Q366 542 379 535T397 504L476 189L555 509Q560 529 574 535T608 542Q638 542 653
534T668 505Q668 496 666 487T661 467L532 26Q526 4 513 -1T478 -6Q456 -6 444 0T426 26L342 346L257 27Q251 4 239 -1T203 -6Q179 -6 168 0T151 25L22 467Z" />
<glyph unicode="x" glyph-name="x" horiz-adv-x="488" d="M410 -6Q391 -6 374 -3T348 15L238 183L139 14Q131 1 114 -2T78 -6Q55 -6 38 0T20 27Q20 43 33 59L177 273L40 468Q32 479 28 489T23 509Q23 526 39 534T83 542Q112 542 125 535T148 514L246 366L340 513Q351
529 364 535T404 542Q432 542 448 534T464 509Q464 500 460 492T447 470L308 274L453 63Q468 40 468 27Q468 8 452 1T410 -6Z" />
<glyph unicode="y" glyph-name="y" horiz-adv-x="466" d="M15 476Q13 483 11 492T8 509Q8 528 24 535T66 542Q84 542 102 536T127 508L233 182L338 508Q345 529 362 535T399 542Q425 542 441 535T458 509Q458 500 455 491T450 476L211 -176Q205 -193 190 -199T147
-205Q123 -205 108 -198T92 -174Q92 -164 95 -155T102 -135L175 43L15 476Z" />
<glyph unicode="z" glyph-name="z" horiz-adv-x="465" d="M279 434H75Q54 434 45 449T36 486Q36 508 45 523T75 539H392Q402 539 410 533T423 518T431 500T434 483Q434 466 424 452L181 105H403Q424 105 433 90T442 52Q442 31 433 16T403 0H74Q64 0 56 6T41 21T30
39T26 57Q26 72 37 86L279 434Z" />
<glyph unicode="{" glyph-name="braceleft" horiz-adv-x="327" d="M216 -100Q161 -100 131 -72T101 19V189Q101 246 88 268T42 290Q25 290 18 301T10 327Q10 342 17 353T42 365Q74 365 87 386T101 466V620Q101 683 131 721T216 760H272Q292 760 300 746T309 711Q309
691 301 677T272 662H243Q220 662 213 648T206 604V452Q206 416 197 393T173 356T142 336T112 328V326Q125 324 141 318T172 299T196 262T206 203V59Q206 -2 242 -2H272Q292 -2 300 -16T309 -51Q309 -71 301 -85T272 -100H216V-100Z" />
<glyph unicode="|" glyph-name="bar" horiz-adv-x="264" d="M85 734Q85 754 98 762T132 770Q151 770 164 762T178 734V-46Q178 -65 165 -73T132 -81Q112 -81 99 -73T85 -47V734Z" />
<glyph unicode="}" glyph-name="braceright" horiz-adv-x="327" d="M55 -100Q35 -100 27 -86T18 -51Q18 -31 26 -17T55 -2H85Q121 -2 121 59V203Q121 239 131 262T155 298T185 318T215 326V328Q201 330 185 336T155 356T131 393T121 452V604Q121 633 114 647T84
662H55Q35 662 27 676T18 711Q18 731 26 745T55 760H111Q166 760 196 722T226 620V466Q226 408 239 387T285 365Q302 365 309 354T317 327Q317 313 310 302T285 290Q253 290 240 268T226 189V19Q226 -44 196 -72T111 -100H55Z" />
<glyph unicode="~" glyph-name="asciitilde" horiz-adv-x="596" d="M90 188Q72 188 58 199T43 228Q43 248 54 270T84 311T129 342T184 354Q216 354 245 343T301 319T352 294T400 283Q423 283 436 293T460 316T480 339T506 350Q524 350 539 338T555 308Q555 288
544 266T514 226T468 196T409 184Q375 184 347 195T292 219T243 244T195 255Q173 255 160 245T136 222T115 199T90 188Z" />
</font>
</defs>
</svg>
