<?xml version="1.0" standalone="no"?> <!DOCTYPE svg PUBLIC "-//W3C//DTD SVG 1.0//EN" "http://www.w3.org/TR/2001/REC-SVG-20010904/DTD/svg10.dtd" > <svg xmlns="http://www.w3.org/2000/svg" width="100%" height="100%">
<defs >
<font id="NetworkTT-Light" horiz-adv-x="476" ><font-face
    font-family="Network TT"
    units-per-em="1000"
    panose-1="2 11 3 0 3 0 0 2 0 3"
    ascent="770"
    descent="-230"
    alphabetic="0" />
<missing-glyph horiz-adv-x="500" d="M0 700H500V0H0V700ZM420 650H80L250 395L420 650ZM450 95V605L280 350L450 95ZM420 50L250 305L80 50H420ZM50 95L220 350L50 605V95Z" />
<glyph unicode=" " glyph-name="space" horiz-adv-x="244" />
<glyph unicode="!" glyph-name="exclam" horiz-adv-x="276" d="M98 680Q98 697 109 707T138 717Q155 717 166 707T178 680V243Q178 226 167 215T138 203Q121 203 110 214T98 243V680ZM82 48Q82 71 98 87T138 104Q161 104 177 88T193 48Q193 25 177 9T138 -7Q115
-7 99 9T82 48Z" />
<glyph unicode="&quot;" glyph-name="quotedbl" horiz-adv-x="332" d="M62 679Q62 697 72 707T98 717Q113 717 123 707T134 679V539Q134 520 124 510T98 500Q83 500 73 510T62 539V679ZM197 679Q197 697 207 707T233 717Q249 717 259 707T270 679V539Q270 520
260 510T233 500Q218 500 208 510T197 539V679Z" />
<glyph unicode="#" glyph-name="numbersign" horiz-adv-x="542" d="M122 214H53Q39 214 31 223T22 246Q22 260 30 269T53 278H131L153 434H84Q70 434 62 443T53 466Q53 479 61 488T84 498H162L190 692Q193 718 222 718Q236 718 245 709T254 689Q254 681 253 673T250
658L227 498H355L383 692Q386 718 415 718Q429 718 438 710T447 689Q447 681 446 673T443 658L420 498H490Q504 498 512 489T521 466Q521 452 513 443T490 434H411L388 278H460Q474 278 482 269T491 246Q491 233 483 224T460 214H379L352 23Q348 -5 320 -5Q306
-5 297 2T288 24Q288 31 289 39T292 55L314 214H187L160 23Q156 -5 127 -5Q113 -5 105 2T96 24Q96 31 97 39T100 55L122 214ZM196 278H323L346 434H218L196 278Z" />
<glyph unicode="$" glyph-name="dollar" horiz-adv-x="463" d="M25 78Q25 94 36 107T62 120Q72 120 84 112T113 93T155 75T216 66V338L210 341Q178 354 147 371T92 412T52 469T37 548Q37 585 50 615T86 666T143 701T216 717V758Q216 769 224 777T244 785Q255 785
262 778T270 759V718Q297 716 322 709T368 693T401 671T414 645Q414 630 404 617T376 603Q367 603 358 608T337 620T309 634T270 644V403Q306 386 337 368T391 326T427 270T440 195Q440 120 398 66T270 -2V-54Q270 -65 263 -73T244 -81Q232 -81 224 -73T216 -54V-7H214Q175
-7 141 1T81 23T40 51T25 78ZM123 549Q123 502 149 476T216 428V644Q172 638 148 613T123 549ZM354 187Q354 229 335 257T270 312V72Q315 85 334 117T354 187Z" />
<glyph unicode="%" glyph-name="percent" horiz-adv-x="735" d="M192 375Q161 375 133 387T84 422T51 476T38 544Q38 583 51 615T85 671T134 706T192 719Q222 719 250 707T299 671T333 616T346 544Q346 507 334 476T300 423T251 388T192 375ZM543 -7Q512 -7 484
5T435 40T402 93T389 161Q389 201 402 233T436 289T485 324T543 337Q573 337 601 325T650 289T685 234T698 161Q698 124 686 94T652 41T602 6T543 -7ZM543 58Q564 58 578 67T603 91T617 124T622 160Q622 207 602 237T543 268Q505 268 485 238T464 160Q464 142 468
124T483 91T507 67T543 58ZM192 442Q213 442 227 451T252 474T266 507T271 544Q271 591 250 621T192 652Q154 652 133 622T112 544Q112 526 116 508T131 475T156 451T192 442ZM473 704Q483 728 507 728Q521 728 530 720T539 698Q539 691 536 685T531 673L259 10Q254
-3 246 -9T224 -16Q211 -16 202 -8T192 13Q192 20 195 27T201 40L473 704Z" />
<glyph unicode="&amp;" glyph-name="ampersand" horiz-adv-x="669" d="M232 -6Q188 -6 153 8T92 47T53 108T39 186Q39 224 51 257T85 320T134 374T195 423Q169 458 148 498T127 581Q127 650 168 684T278 718Q344 718 385 686T426 593Q426 567 420 545T398 501T360
457T302 410L454 215Q471 232 488 252T526 296Q548 321 559 328T583 335Q600 335 611 326T622 301Q622 291 615 282T591 254Q565 225 543 201T501 155L576 58Q581 52 585 44T589 30Q589 16 578 6T549 -5Q536 -6 528 0T509 21L447 100Q417 71 392 51T341 19T289
0T232 -6ZM237 66Q277 66 314 87T401 158L240 365Q216 347 196 327T159 285T134 239T125 189Q125 134 157 100T237 66ZM206 581Q206 553 221 525T259 466Q309 503 328 531T347 582Q347 614 330 633T274 653Q245 653 226 635T206 581Z" />
<glyph unicode="&apos;" glyph-name="quotesingle" horiz-adv-x="193" d="M60 679Q60 697 70 707T97 717Q112 717 122 707T133 679V539Q133 520 123 510T97 500Q81 500 71 510T60 539V679Z" />
<glyph unicode="(" glyph-name="parenleft" horiz-adv-x="256" d="M187 -111Q173 -111 164 -102T144 -76Q124 -39 106 4T73 97T50 206T41 330Q41 396 50 454T73 562T105 655T144 735Q154 752 163 761T187 770Q203 770 215 759T227 731Q227 723 223 714T212 690Q198
664 182 627T152 544T129 444T120 330Q120 270 129 216T152 116T182 32T212 -31Q219 -45 223 -55T227 -72Q227 -88 215 -99T187 -111Z" />
<glyph unicode=")" glyph-name="parenright" horiz-adv-x="256" d="M72 -111Q55 -111 44 -100T32 -72Q32 -65 36 -55T47 -31Q61 -5 77 32T107 115T130 216T139 330Q139 390 130 444T107 544T77 627T47 690Q40 704 36 713T32 731Q32 747 43 758T72 770Q86 770 95
761T115 735Q134 698 153 655T186 562T209 454T218 330Q218 264 209 206T186 98T153 4T115 -76Q105 -93 96 -102T72 -111Z" />
<glyph unicode="*" glyph-name="asterisk" horiz-adv-x="388" d="M154 539Q130 549 109 558T73 575T48 592T38 614Q38 626 46 633T71 641Q77 641 83 639T100 630T128 610T175 573Q170 607 168 627T164 658T162 674T162 684Q162 699 170 708T194 718Q209 718 217
709T226 684Q226 680 226 675T225 658T221 627T213 573Q244 596 262 609T292 630T308 639T317 641Q350 641 350 609Q350 602 346 596T330 583T295 565T234 539Q267 524 289 515T324 498T344 484T350 469Q350 437 317 437Q313 437 308 439T292 448T263 468T213 505Q218
471 220 451T224 420T226 403T226 394Q226 379 218 370T194 360Q179 360 171 369T162 394Q162 398 162 403T163 419T167 451T175 505Q149 486 133 473T105 452T86 441T71 437Q38 437 38 469Q38 476 43 482T61 496T96 514T154 539Z" />
<glyph unicode="+" glyph-name="plus" horiz-adv-x="600" d="M264 239H80Q65 239 56 250T46 276Q46 291 55 301T80 312H264V506Q264 521 274 530T300 540Q315 540 325 531T336 506V312H521Q536 312 545 302T555 276Q555 261 546 250T521 239H336V46Q336 31 326
22T300 12Q285 12 275 21T264 46V239Z" />
<glyph unicode="," glyph-name="comma" horiz-adv-x="244" d="M91 63Q98 77 107 85T132 93Q150 93 163 82T176 53Q176 42 172 33T163 14L105 -95Q98 -109 89 -118T65 -127Q45 -127 32 -115T19 -86Q19 -74 27 -60L91 63Z" />
<glyph unicode="-" glyph-name="hyphen" horiz-adv-x="359" d="M286 304Q301 304 310 294T320 268Q320 253 311 243T286 232H74Q59 232 50 242T40 268Q40 283 49 293T74 304H286Z" />
<glyph unicode="." glyph-name="period" horiz-adv-x="244" d="M66 48Q66 71 82 87T122 104Q145 104 161 88T177 48Q177 25 161 9T122 -7Q99 -7 83 9T66 48Z" />
<glyph unicode="/" glyph-name="slash" horiz-adv-x="391" d="M274 742Q284 770 313 770Q329 770 339 760T349 733Q349 728 348 720T345 709L117 -54Q113 -66 104 -73T79 -81Q62 -81 52 -71T42 -46Q42 -36 45 -25L274 742Z" />
<glyph unicode="0" glyph-name="zero" horiz-adv-x="513" d="M39 356Q39 455 55 524T99 636T168 699T256 719Q304 719 344 700T413 637T458 524T474 356Q474 257 458 188T414 76T345 13T256 -7Q208 -7 168 12T100 75T55 188T39 356ZM126 356Q126 295 132 243T153
151T193 90T256 68Q294 68 319 90T359 151T380 242T387 356Q387 417 381 469T359 561T319 622T256 644Q218 644 193 622T153 561T132 470T126 356Z" />
<glyph unicode="1" glyph-name="one" horiz-adv-x="453" d="M223 74V605L103 515Q98 511 91 507T75 503Q59 503 47 516T35 545Q35 551 38 560T54 578L238 710Q250 717 265 717Q281 717 292 708T304 681V74H404Q419 74 429 63T439 37Q439 22 429 11T404 0H96Q81
0 72 11T62 37Q62 52 71 63T95 74H223Z" />
<glyph unicode="2" glyph-name="two" horiz-adv-x="461" d="M83 0Q68 0 57 11T46 37Q46 97 68 145T122 233T193 308T263 377T318 448T340 528Q340 580 310 612T229 645Q186 645 160 627T113 577Q104 563 96 556T75 548Q59 548 47 560T34 589Q34 600 42 614T63
643Q89 676 129 697T232 719Q275 719 309 705T368 665T406 605T420 529Q420 478 399 435T346 353T277 281T208 214T155 146T134 74H391Q407 74 416 63T426 37Q426 22 417 11T391 0H83Z" />
<glyph unicode="3" glyph-name="three" horiz-adv-x="475" d="M215 -7Q174 -7 141 1T84 23T47 51T34 78Q34 94 45 107T71 120Q82 120 92 112T117 94T155 76T215 67Q276 67 312 102T348 198Q348 238 334 264T297 307T244 331T185 338Q168 338 159 349T149 375Q149
391 158 401T185 412Q206 412 229 421T272 447T305 488T318 541Q318 559 314 577T298 611T267 635T219 645Q190 645 170 638T135 623T109 607T87 600Q64 600 56 614T47 642Q47 650 52 661T74 682Q103 698 137 708T219 719Q264 719 299 706T357 669T392 615T404
547Q404 487 373 445T297 384Q436 340 436 194Q436 148 420 111T374 48T304 7T215 -7Z" />
<glyph unicode="4" glyph-name="four" horiz-adv-x="513" d="M489 224Q489 209 480 198T455 187H408V33Q408 15 397 5T368 -6Q351 -6 339 4T327 33V187H69Q54 187 42 199T30 225Q30 234 33 243L194 691Q198 702 207 709T233 717Q250 717 262 707T274 681Q274 672
269 662L122 261H327V495Q327 512 339 522T368 532Q385 532 396 522T408 495V261H455Q470 261 479 250T489 224Z" />
<glyph unicode="5" glyph-name="five" horiz-adv-x="498" d="M214 -7Q181 -7 151 1T98 23T61 51T47 78Q47 94 57 107T84 120Q95 120 106 112T132 94T170 76T226 68Q258 68 281 81T321 116T344 170T352 237Q352 304 320 344T225 385Q206 385 190 381T160 371T134
361T112 356Q96 356 84 368T71 396V404L104 679Q107 712 140 712H391Q407 712 416 701T426 675Q426 659 416 649T391 638H173L150 436Q168 445 194 451T247 458Q290 458 325 442T385 397T425 329T439 245Q439 188 424 142T380 62T310 11T214 -7Z" />
<glyph unicode="6" glyph-name="six" horiz-adv-x="500" d="M253 -6Q194 -6 154 17T88 75T51 152T39 232Q39 275 49 329T86 445T159 573T279 708Q292 719 306 719Q322 719 334 707T347 677Q347 670 345 663T334 649Q293 613 249 562T166 431Q188 445 214 452T268
459Q359 459 410 398T461 232Q461 190 449 148T411 71T346 16T253 -6ZM247 69Q273 69 296 79T336 108T364 157T374 226Q374 301 340 343T249 385Q189 385 158 346T126 226Q126 197 133 169T155 118T193 83T247 69Z" />
<glyph unicode="7" glyph-name="seven" horiz-adv-x="443" d="M155 -6Q138 -6 127 3T115 29Q115 40 119 48L333 638H51Q34 638 24 648T14 674Q14 690 24 701T48 712H386Q401 712 412 700T424 672Q424 664 422 657T416 639L194 20Q185 -6 155 -6Z" />
<glyph unicode="8" glyph-name="eight" horiz-adv-x="502" d="M251 -7Q200 -7 161 11T94 59T53 128T39 211Q39 276 71 327T153 397Q115 415 92 454T68 550Q68 584 81 614T119 668T177 705T251 719Q291 719 324 706T382 669T420 615T434 550Q434 494 409 455T349
397Q403 377 432 327T462 211Q462 168 448 129T408 59T342 11T251 -7ZM251 432Q303 432 328 464T353 541Q353 586 325 615T251 645Q204 645 177 616T149 543Q149 496 173 464T251 432ZM251 68Q282 68 305 81T343 116T367 165T375 218Q375 245 367 271T344 316T305
348T251 360Q221 360 198 348T158 317T134 271T126 218Q126 192 134 165T157 117T196 82T251 68Z" />
<glyph unicode="9" glyph-name="nine" horiz-adv-x="500" d="M247 719Q306 719 346 696T412 638T449 560T461 480Q461 437 451 383T414 268T341 139T221 4Q209 -6 194 -6Q178 -6 166 6T153 36Q153 42 156 50T167 64Q207 99 251 150T335 282Q312 267 286 261T232
254Q141 254 90 315T39 481Q39 523 51 565T89 642T154 697T247 719ZM253 644Q227 644 204 634T164 605T137 555T127 486Q127 411 161 369T251 327Q311 327 342 366T374 486Q374 516 367 544T345 594T307 630T253 644Z" />
<glyph unicode=":" glyph-name="colon" horiz-adv-x="244" d="M66 372Q66 395 82 411T122 428Q145 428 161 412T177 372Q177 349 161 333T122 317Q99 317 83 333T66 372ZM66 48Q66 71 82 87T122 104Q145 104 161 88T177 48Q177 25 161 9T122 -7Q99 -7 83 9T66 48Z" />
<glyph unicode=";" glyph-name="semicolon" horiz-adv-x="244" d="M66 372Q66 395 82 411T122 428Q145 428 161 412T177 372Q177 349 161 333T122 317Q99 317 83 333T66 372ZM91 63Q98 77 107 85T132 93Q150 93 163 82T176 53Q176 42 172 33T163 14L105 -95Q98
-109 89 -118T65 -127Q45 -127 32 -115T19 -86Q19 -74 27 -60L91 63Z" />
<glyph unicode="&lt;" glyph-name="less" horiz-adv-x="600" d="M35 255Q35 265 40 274T62 292L488 510Q493 512 499 514T513 517Q527 517 535 508T544 484Q544 472 539 464T520 448L145 255L515 63Q533 54 538 46T544 25Q544 11 536 2T513 -8Q505 -8 498 -5T482
3L62 219Q45 227 40 236T35 255Z" />
<glyph unicode="=" glyph-name="equal" horiz-adv-x="600" d="M521 397Q536 397 545 386T555 360Q555 346 546 335T521 324H80Q65 324 56 335T46 360Q46 375 55 386T80 397H521ZM521 190Q536 190 545 179T555 153Q555 138 546 128T521 117H80Q65 117 56 127T46
153Q46 168 55 179T80 190H521Z" />
<glyph unicode="&gt;" glyph-name="greater" horiz-adv-x="600" d="M565 255Q565 245 560 236T538 219L118 3Q109 -2 102 -5T87 -8Q73 -8 65 1T56 25Q56 37 61 45T85 63L455 255L80 448Q66 456 61 464T56 484Q56 498 64 507T87 517Q94 517 100 515T112 510L538
292Q555 283 560 274T565 255Z" />
<glyph unicode="?" glyph-name="question" horiz-adv-x="425" d="M148 370Q148 384 155 396T189 414Q315 439 315 530Q315 581 285 613T205 645Q162 645 135 626T88 577Q78 563 69 556T47 548Q30 548 20 559T9 584Q9 598 16 613T36 643Q62 676 104 697T207 719Q250
719 284 705T343 665T381 606T395 531Q395 490 382 460T346 407T293 370T229 347V240Q229 223 218 212T189 200Q172 200 160 211T148 240V370ZM133 48Q133 71 149 87T189 104Q212 104 228 88T244 48Q244 25 228 9T189 -7Q166 -7 150 9T133 48Z" />
<glyph unicode="@" glyph-name="at" horiz-adv-x="885" d="M313 195Q313 90 395 90Q429 90 458 114T508 174T541 249T553 320Q553 354 534 377T471 401Q436 401 407 381T357 331T325 264T313 195ZM450 -170Q364 -170 288 -137T156 -47T67 86T34 248Q34 333 66
407T155 537T287 625T449 658Q536 658 610 631T737 554T821 434T851 280Q851 218 828 169T768 85T686 31T597 12Q558 12 535 33T511 93Q491 64 457 40T373 16Q337 16 310 29T263 65T235 120T225 189Q225 241 242 292T291 384T367 450T463 475Q504 475 536 456T587
394L600 430Q606 445 616 451T639 457Q654 457 665 447T676 421Q676 417 675 411T670 393L593 169Q588 157 585 143T582 118Q582 104 589 92T614 80Q639 80 668 94T722 135T763 197T780 276Q780 351 755 408T685 505T580 564T449 585Q378 585 316 559T208 486T135
377T108 244Q108 172 134 110T207 2T315 -70T448 -97Q512 -97 558 -87T636 -61T690 -28T726 2Q734 10 741 17T761 25Q775 25 786 14T797 -11Q797 -17 795 -22T785 -36Q762 -57 732 -81T660 -124T566 -157T450 -170Z" />
<glyph unicode="A" glyph-name="A" horiz-adv-x="565" d="M422 177H143L93 19Q87 5 77 0T55 -6Q38 -6 26 4T13 31Q13 39 16 44L205 619Q213 645 220 663T235 694T254 712T282 718Q299 718 310 712T329 694T344 664T359 620L548 47Q549 44 550 40T551 31Q551 14
539 4T510 -6Q497 -6 487 0T472 19L422 177ZM166 252H398L282 618L166 252Z" />
<glyph unicode="B" glyph-name="B" horiz-adv-x="522" d="M73 671Q73 689 84 700T113 712H255Q316 712 355 696T417 653T447 595T456 532Q456 469 422 434T331 385Q408 373 446 326T484 204Q484 164 473 127T435 62T368 17T266 0H113Q95 0 84 11T73 40V671ZM154
410H236Q263 410 288 418T332 442T363 479T375 527Q375 574 345 606T245 638H154V410ZM154 74H257Q403 74 403 207Q403 267 365 304T256 341H154V74Z" />
<glyph unicode="C" glyph-name="C" horiz-adv-x="551" d="M319 -7Q244 -7 192 18T106 91T58 205T43 356Q43 438 59 505T110 619T200 693T335 719Q376 719 412 709T474 684T516 653T531 623Q531 609 520 597T494 584Q482 584 470 593T441 614T398 635T333 645Q267
645 228 619T167 550T138 457T131 356Q131 306 138 255T165 162T224 94T324 67Q366 67 394 75T441 93T472 111T495 119Q509 119 520 107T531 80Q531 66 514 51T467 22T399 1T319 -7Z" />
<glyph unicode="D" glyph-name="D" horiz-adv-x="613" d="M73 671Q73 689 84 700T113 712H289Q376 712 431 680T517 596T559 480T570 352Q570 270 553 205T501 95T412 25T284 0H113Q95 0 84 11T73 40V671ZM154 74H277Q340 74 380 96T442 158T473 250T482 364Q482
414 474 463T444 551T382 614T282 638H154V74Z" />
<glyph unicode="E" glyph-name="E" horiz-adv-x="474" d="M72 671Q72 690 83 701T113 712H425Q440 712 449 701T459 675Q459 659 450 649T425 638H154V392H352Q367 392 376 382T386 355Q386 340 377 329T352 318H153V74H425Q440 74 449 63T459 37Q459 22 450 11T425
0H113Q95 0 84 11T72 40V671Z" />
<glyph unicode="F" glyph-name="F" horiz-adv-x="444" d="M72 671Q72 689 83 700T113 712H425Q440 712 449 701T459 675Q459 659 450 649T425 638H153V392H352Q367 392 376 382T386 355Q386 340 377 329T352 318H153V31Q153 14 142 4T113 -6Q96 -6 84 4T72 31V671Z" />
<glyph unicode="G" glyph-name="G" horiz-adv-x="608" d="M510 361Q549 361 561 345T574 302V246Q574 127 508 60T320 -7Q245 -7 192 18T106 91T58 205T43 356Q43 438 59 505T110 619T201 693T336 719Q376 719 412 709T475 684T517 653T533 623Q533 609 522 597T496
584Q484 584 472 593T441 614T398 635T334 645Q268 645 228 619T167 550T138 457T131 356Q131 306 138 255T165 162T224 94T324 67Q412 67 452 115T493 240V287H386Q366 287 356 297T346 324Q346 340 356 350T386 361H510Z" />
<glyph unicode="H" glyph-name="H" horiz-adv-x="631" d="M154 32Q154 15 142 5T113 -6Q96 -6 85 4T73 32V680Q73 697 84 707T113 717Q130 717 142 707T154 680V402H477V680Q477 697 488 707T517 717Q534 717 546 707T558 680V32Q558 15 546 5T517 -6Q500 -6 489
4T477 32V328H154V32Z" />
<glyph unicode="I" glyph-name="I" horiz-adv-x="353" d="M74 641Q58 641 49 651T39 676Q39 691 48 701T73 712H280Q295 712 304 702T314 676Q314 662 305 652T280 641H217V71H280Q295 71 304 61T314 36Q314 21 305 11T280 0H73Q58 0 49 10T39 36Q39 50 48 60T73
71H136V641H74Z" />
<glyph unicode="J" glyph-name="J" horiz-adv-x="400" d="M246 680Q246 697 258 707T287 717Q304 717 315 707T327 680V170Q327 87 289 40T162 -7Q131 -7 105 2T58 24T27 52T15 79Q15 94 25 106T51 119Q62 119 72 111T94 94T121 76T161 68Q212 68 229 96T246 172V680Z" />
<glyph unicode="K" glyph-name="K" horiz-adv-x="518" d="M153 395L410 701Q420 717 445 717Q462 717 473 708T485 682Q485 674 481 667T472 653L229 365L501 56Q506 50 510 43T514 28Q514 13 503 4T474 -6Q454 -6 442 7L153 332V31Q153 14 142 4T113 -6Q96 -6
84 4T72 31V680Q72 697 84 707T113 717Q130 717 141 707T153 680V395Z" />
<glyph unicode="L" glyph-name="L" horiz-adv-x="435" d="M72 680Q72 697 84 707T113 717Q130 717 141 707T153 680V74H395Q410 74 420 63T430 37Q430 22 420 11T395 0H113Q95 0 84 11T72 40V680Z" />
<glyph unicode="M" glyph-name="M" horiz-adv-x="768" d="M644 639Q666 490 681 388T707 218T722 115T731 60T734 38T735 31Q735 14 723 4T694 -6Q678 -6 667 2T653 25L571 612L447 73Q437 31 422 16T384 0Q358 0 345 15T321 73L195 611L114 25Q112 10 101 2T74
-6Q57 -6 45 4T33 30Q33 37 34 42L123 639Q130 686 146 701T196 717Q225 717 240 700T266 639L383 110L501 639Q512 685 528 701T573 717Q605 717 621 702T644 639Z" />
<glyph unicode="N" glyph-name="N" horiz-adv-x="631" d="M73 681Q73 697 84 707T112 717Q138 717 153 694L477 168V680Q477 697 488 707T517 717Q534 717 546 707T558 680V32Q558 15 547 5T519 -6Q493 -6 480 15L154 546V31Q154 14 142 4T113 -6Q96 -6 85 4T73 31V681Z" />
<glyph unicode="O" glyph-name="O" horiz-adv-x="642" d="M321 -7Q245 -7 192 18T106 91T58 205T43 356Q43 435 58 501T106 616T192 692T321 719Q397 719 449 692T535 617T583 502T598 356Q598 272 583 205T535 91T450 19T321 -7ZM321 67Q382 67 419 93T477 162T504
255T511 356Q511 405 504 456T477 550T420 618T321 645Q260 645 223 619T165 550T138 457T131 356Q131 306 138 255T165 162T222 94T321 67Z" />
<glyph unicode="P" glyph-name="P" horiz-adv-x="502" d="M72 670Q72 689 83 700T113 712H272Q332 712 372 692T437 639T472 569T483 495Q483 450 471 409T431 337T360 287T256 268H153V31Q153 14 142 4T113 -6Q96 -6 84 4T72 31V670ZM153 341H258Q299 341 327
354T371 389T395 437T402 490Q402 517 395 543T371 591T327 625T258 638H153V341Z" />
<glyph unicode="Q" glyph-name="Q" horiz-adv-x="642" d="M310 -7Q238 -7 188 18T105 91T58 205T43 356Q43 435 58 501T106 616T192 692T321 719Q397 719 449 693T535 618T583 503T598 356Q598 257 573 183T497 61L547 -32Q554 -42 554 -53Q554 -67 543 -78T514
-90Q500 -90 493 -82T479 -62L436 19Q381 -7 310 -7ZM321 67Q369 67 401 83L351 175Q347 183 344 190T340 206Q340 221 352 232T380 244Q392 244 400 237T414 218L460 132Q491 175 501 235T511 356Q511 405 504 456T477 550T420 618T321 645Q260 645 223 619T165
550T138 457T131 356Q131 306 138 255T165 162T222 94T321 67Z" />
<glyph unicode="R" glyph-name="R" horiz-adv-x="532" d="M72 671Q72 690 83 701T111 712H272Q332 712 372 695T437 649T472 586T483 516Q483 443 450 390T340 316L510 55Q513 50 516 44T519 29Q519 14 507 4T476 -6Q448 -6 437 14L252 307H153V31Q153 14 142
4T113 -6Q96 -6 84 4T72 31V671ZM153 381H258Q299 381 327 391T371 420T395 461T402 511Q402 537 395 560T371 600T327 628T258 638H153V381Z" />
<glyph unicode="S" glyph-name="S" horiz-adv-x="468" d="M217 -7Q177 -7 143 1T83 23T42 51T27 78Q27 94 38 107T64 120Q75 120 87 112T116 94T157 76T218 67Q254 67 280 77T322 104T345 143T353 188Q353 214 346 235T323 274T279 308T212 341Q180 354 149 371T94
412T55 469T40 548Q40 589 55 621T99 674T165 707T249 719Q278 719 307 713T361 697T400 673T416 645Q416 630 406 617T379 603Q368 603 358 609T333 624T297 638T244 645Q190 645 159 618T127 549Q127 521 136 501T163 465T204 437T256 411Q296 393 329 375T388
332T427 274T441 195Q441 152 427 115T385 51T315 9T217 -7Z" />
<glyph unicode="T" glyph-name="T" horiz-adv-x="448" d="M42 638Q27 638 17 648T7 675Q7 690 17 701T42 712H406Q421 712 430 701T440 675Q440 659 431 649T406 638H264V31Q264 14 253 4T224 -6Q207 -6 195 4T183 31V638H42Z" />
<glyph unicode="U" glyph-name="U" horiz-adv-x="612" d="M63 680Q63 697 75 707T104 717Q121 717 132 707T144 680V255Q144 159 188 114T306 69Q380 69 424 114T468 255V680Q468 697 479 707T508 717Q525 717 537 707T549 680V247Q549 185 532 138T483 58T406
10T306 -6Q251 -6 206 10T130 58T81 137T63 247V680Z" />
<glyph unicode="V" glyph-name="V" horiz-adv-x="543" d="M271 100L461 692Q466 706 476 711T499 717Q516 717 528 708T541 682Q541 678 540 674T538 667L345 91Q336 65 330 47T315 17T297 0T271 -6Q255 -6 245 -1T227 17T213 47T198 91L6 665Q5 667 4 671T2 682Q2
698 14 707T44 717Q57 717 67 711T82 692L271 100Z" />
<glyph unicode="W" glyph-name="W" horiz-adv-x="761" d="M25 616Q21 635 19 646T15 664T14 673T14 680Q14 697 26 707T55 717Q71 717 81 709T95 686L215 113L320 613Q328 655 342 670T381 686Q406 686 419 670T442 612L546 113L666 686Q669 702 680 709T706 717Q723
717 735 708T747 681Q747 679 747 676T746 668L618 73Q613 50 607 35T593 10T575 -2T549 -6Q516 -6 502 11T475 73L381 545L285 73Q275 26 260 10T212 -6Q183 -6 168 10T143 73L25 616Z" />
<glyph unicode="X" glyph-name="X" horiz-adv-x="512" d="M257 440L412 688Q422 704 431 710T457 717Q474 717 485 708T497 682Q497 674 493 665T481 644L304 366L491 70Q508 44 508 29Q508 14 497 4T468 -6Q451 -6 444 0T426 22L252 297L87 22Q78 7 70 1T44 -6Q27
-6 16 4T4 29Q4 37 9 47T22 70L205 371L33 643Q25 655 20 665T15 683Q15 699 27 708T56 717Q72 717 81 711T100 688L257 440Z" />
<glyph unicode="Y" glyph-name="Y" horiz-adv-x="493" d="M206 279L16 644Q11 652 7 662T3 682Q3 698 15 707T45 717Q61 717 68 711T83 691L246 360L409 691Q416 705 424 711T449 717Q466 717 478 708T490 682Q490 673 486 663T478 644L287 279V40Q287 -6 246
-6Q206 -6 206 40V279Z" />
<glyph unicode="Z" glyph-name="Z" horiz-adv-x="473" d="M56 0Q41 0 30 12T19 39Q19 50 23 58T33 75L344 638H66Q50 638 41 648T31 675Q31 690 40 701T66 712H406Q422 712 432 700T443 673Q443 664 439 656T430 640L117 74H419Q434 74 444 63T454 37Q454 22 444
11T419 0H56Z" />
<glyph unicode="[" glyph-name="bracketleft" horiz-adv-x="276" d="M218 -28Q233 -28 242 -38T252 -64Q252 -79 243 -89T218 -100H130Q112 -100 101 -89T90 -60V720Q90 738 101 749T130 760H218Q233 760 242 750T252 724Q252 709 243 699T218 688H169V-28H218Z" />
<glyph unicode="\" glyph-name="backslash" horiz-adv-x="391" d="M346 -25Q349 -36 349 -46Q349 -61 339 -71T312 -81Q297 -81 288 -74T274 -54L46 709Q45 712 44 720T42 733Q42 750 52 760T78 770Q107 770 117 742L346 -25Z" />
<glyph unicode="]" glyph-name="bracketright" horiz-adv-x="276" d="M108 -28V688H58Q43 688 34 698T24 724Q24 739 33 749T58 760H146Q164 760 175 749T186 720V-60Q186 -78 175 -89T146 -100H58Q43 -100 34 -90T24 -64Q24 -49 33 -39T58 -28H108Z" />
<glyph unicode="^" glyph-name="asciicircum" horiz-adv-x="600" d="M265 694Q273 709 281 713T300 718Q310 718 318 714T335 694L541 324Q546 314 548 308T550 294Q550 280 540 274T515 267Q499 268 490 277T471 303L300 614L128 303Q119 286 110 277T85 267Q71
267 61 273T50 294Q50 301 52 307T59 324L265 694Z" />
<glyph unicode="_" glyph-name="underscore" horiz-adv-x="500" d="M0 -125Q-12 -125 -20 -119T-29 -100Q-29 -88 -21 -82T0 -75H500Q512 -75 520 -81T529 -100Q529 -112 521 -118T500 -125H0V-125Z" />
<glyph unicode="`" glyph-name="grave" horiz-adv-x="206" d="M187 674Q201 669 207 659T213 637Q213 622 203 612T178 602Q170 602 161 605L10 665Q-2 670 -8 679T-14 698Q-14 714 -3 724T24 735Q28 735 32 735T38 733L187 674Z" />
<glyph unicode="a" glyph-name="a" horiz-adv-x="496" d="M201 -6Q171 -6 141 2T88 28T49 78T34 155Q34 197 51 226T97 275T161 302T233 311Q275 311 306 307T361 297V318Q361 397 329 431T236 466Q203 466 182 461T147 448T123 436T102 430Q87 430 78 441T68
468Q68 483 80 496T115 518T168 534T236 540Q347 540 393 482T439 303V31Q439 14 427 4T398 -6Q381 -6 370 4T359 31V78Q333 32 295 13T201 -6ZM120 155Q120 108 144 87T213 66Q243 66 269 78T315 111T346 163T358 229Q316 245 248 245Q188 245 154 220T120 155Z"
/>
<glyph unicode="b" glyph-name="b" horiz-adv-x="547" d="M509 267Q509 207 496 157T456 71T387 14T286 -6Q241 -6 207 12T149 65V31Q149 14 138 4T110 -6Q93 -6 82 4T70 31V733Q70 750 81 760T110 770Q127 770 138 760T150 733V440Q167 485 201 512T298 540Q354
540 394 518T459 458T497 371T509 267ZM424 267Q424 303 417 338T394 402T352 448T287 466Q248 466 222 449T180 403T157 339T150 267Q150 231 157 196T180 132T222 86T287 68Q326 68 352 85T395 131T417 195T424 267Z" />
<glyph unicode="c" glyph-name="c" horiz-adv-x="442" d="M259 -6Q202 -6 161 14T92 70T51 157T38 267Q38 321 51 370T91 457T162 517T268 540Q299 540 325 535T371 522T401 502T412 480Q412 463 402 451T376 438Q368 438 362 442T344 452T315 461T268 466Q226
466 199 449T154 403T130 339T123 267Q123 231 130 196T153 132T195 86T260 68Q287 68 305 72T335 81T357 91T376 95Q391 95 401 84T412 57Q412 41 400 32Q384 17 345 6T259 -6Z" />
<glyph unicode="d" glyph-name="d" horiz-adv-x="547" d="M249 -6Q195 -6 156 14T90 70T51 157T38 267Q38 321 50 370T89 457T157 517T257 540Q351 540 397 471V732Q397 749 408 759T437 769Q454 769 465 759T477 732V31Q477 14 466 4T437 -6Q420 -6 409 4T398
31V92Q381 48 346 21T249 -6ZM123 267Q123 231 130 196T152 132T194 86T258 68Q296 68 322 85T365 131T389 195T397 267Q397 303 390 338T367 402T325 448T260 466Q221 466 195 449T153 403T130 339T123 267Z" />
<glyph unicode="e" glyph-name="e" horiz-adv-x="503" d="M260 -6Q202 -6 160 14T91 70T51 156T38 267Q38 321 50 370T90 457T158 517T258 540Q315 540 355 518T420 460T456 377T468 280Q468 258 457 246T426 233H125Q128 198 137 168T163 116T205 80T269 67Q300
67 321 71T357 81T382 90T402 95Q417 95 427 84T437 57Q437 49 430 40T412 26Q387 15 353 5T260 -6ZM382 297Q381 329 374 359T352 414T313 452T254 467Q223 467 199 452T159 413T135 359T125 297H382Z" />
<glyph unicode="f" glyph-name="f" horiz-adv-x="279" d="M10 499Q10 513 19 523T42 533H94V594Q94 770 226 770Q265 770 276 758T287 732Q287 697 246 697Q204 697 190 671T175 594V533H232Q252 533 258 522T265 499Q265 488 259 477T232 465H175V40Q175 -6 134
-6Q94 -6 94 40V465H42Q28 465 19 475T10 499Z" />
<glyph unicode="g" glyph-name="g" horiz-adv-x="546" d="M38 267Q38 321 50 370T89 457T156 517T255 540Q352 540 397 467V502Q397 519 408 529T436 539Q453 539 464 529T476 502V32Q476 -31 457 -74T406 -143T332 -181T244 -193Q211 -193 177 -187T114 -170T67
-145T49 -113Q49 -96 60 -84T89 -71Q100 -71 112 -78T141 -95T183 -112T244 -120Q278 -120 306 -112T354 -87T385 -41T396 28V75Q373 40 338 18T251 -5Q196 -5 156 15T90 71T51 157T38 267ZM123 267Q123 231 130 196T152 132T193 86T255 68Q294 68 321 85T365 131T389
195T397 267Q397 303 390 338T367 402T325 448T260 466Q221 466 195 449T153 403T130 339T123 267Z" />
<glyph unicode="h" glyph-name="h" horiz-adv-x="530" d="M70 733Q70 750 81 760T110 770Q127 770 138 760T150 733V456Q176 500 210 520T298 540Q331 540 361 528T413 493T449 434T463 350V31Q463 14 452 4T423 -6Q406 -6 395 4T383 31V348Q383 402 356 434T278
467Q220 467 185 425T150 306V31Q150 14 139 4T110 -6Q93 -6 82 4T70 31V733Z" />
<glyph unicode="i" glyph-name="i" horiz-adv-x="220" d="M57 670Q57 693 72 708T110 723Q132 723 147 708T163 670Q163 649 148 634T110 618Q88 618 73 633T57 670ZM70 502Q70 519 81 529T110 539Q127 539 138 529T150 502V31Q150 14 139 4T110 -6Q93 -6 82 4T70
31V502Z" />
<glyph unicode="j" glyph-name="j" horiz-adv-x="220" d="M70 491Q70 539 110 539Q150 539 150 491V-17Q150 -106 115 -149T0 -193Q-23 -193 -33 -182T-43 -157Q-43 -140 -33 -129T-3 -118Q21 -118 35 -112T57 -92T67 -60T70 -16V491ZM57 670Q57 693 72 708T110
723Q132 723 147 708T163 670Q163 649 148 634T110 618Q88 618 73 633T57 670Z" />
<glyph unicode="k" glyph-name="k" horiz-adv-x="455" d="M70 733Q70 750 81 760T110 770Q127 770 138 760T150 733V315L349 523Q354 529 361 534T382 539Q399 539 411 529T424 503Q424 494 421 488T410 474L230 286L431 55Q441 42 441 28Q441 14 429 4T399 -6Q386
-6 377 -1T362 12L150 256V31Q150 14 139 4T110 -6Q93 -6 82 4T70 31V733Z" />
<glyph unicode="l" glyph-name="l" horiz-adv-x="220" d="M70 733Q70 750 81 760T110 770Q127 770 138 760T150 733V31Q150 14 139 4T110 -6Q93 -6 82 4T70 31V733Z" />
<glyph unicode="m" glyph-name="m" horiz-adv-x="835" d="M70 502Q70 519 81 529T110 539Q127 539 138 529T149 502V453Q175 499 210 519T297 540Q345 540 384 516T443 441Q468 489 505 514T606 540Q678 540 725 493T772 350V32Q772 15 761 5T732 -6Q715 -6 704
4T692 32V348Q692 410 663 438T589 467Q532 467 497 424T461 306V31Q461 14 450 4T421 -6Q404 -6 393 4T381 31V348Q381 402 354 434T277 467Q220 467 185 425T150 306V31Q150 14 139 4T110 -6Q93 -6 82 4T70 31V502Z" />
<glyph unicode="n" glyph-name="n" horiz-adv-x="526" d="M70 502Q70 519 81 529T110 539Q127 539 138 529T149 502V453Q175 499 210 519T298 540Q331 540 361 528T413 493T449 434T463 350V31Q463 14 452 4T423 -6Q406 -6 395 4T383 31V348Q383 402 356 434T278
467Q220 467 185 425T150 306V31Q150 14 139 4T110 -6Q93 -6 82 4T70 31V502Z" />
<glyph unicode="o" glyph-name="o" horiz-adv-x="520" d="M38 267Q38 321 50 370T90 457T159 517T260 540Q319 540 361 518T430 458T469 371T482 267Q482 207 469 157T429 71T360 14T260 -6Q203 -6 161 14T92 70T51 157T38 267ZM123 267Q123 231 130 196T153 132T195
86T260 68Q299 68 325 85T367 131T390 195T397 267Q397 303 390 338T367 402T325 448T260 466Q221 466 195 449T153 403T130 339T123 267Z" />
<glyph unicode="p" glyph-name="p" horiz-adv-x="547" d="M509 267Q509 207 496 157T456 71T387 14T286 -6Q242 -6 208 11T150 64V-156Q150 -173 139 -183T110 -193Q93 -193 82 -183T70 -156V502Q70 519 81 529T110 539Q127 539 138 529T149 502V439Q167 485 201
512T299 540Q354 540 393 518T458 459T496 372T509 267ZM424 267Q424 303 417 338T394 402T352 448T287 466Q248 466 222 449T180 403T157 339T150 267Q150 231 157 196T180 132T222 86T287 68Q326 68 352 85T395 131T417 195T424 267Z" />
<glyph unicode="q" glyph-name="q" horiz-adv-x="540" d="M38 267Q38 321 50 370T89 457T157 517T258 540Q352 540 397 467V493Q397 539 436 539Q476 539 476 493V-147Q476 -193 436 -193Q396 -193 396 -147V90Q378 45 343 20T248 -6Q194 -6 155 14T89 70T51 157T38
267ZM124 267Q124 231 131 196T153 132T194 86T256 68Q295 68 322 85T366 131T390 195T398 267Q398 303 391 338T368 402T326 448T261 466Q222 466 196 449T153 403T131 339T124 267Z" />
<glyph unicode="r" glyph-name="r" horiz-adv-x="323" d="M62 502Q62 519 73 529T102 539Q119 539 130 529T141 502V453Q165 496 195 518T273 540Q300 540 310 528T320 499Q320 482 310 471T274 459Q214 459 178 423T142 306V31Q142 14 131 4T102 -6Q85 -6 74
4T62 31V502Z" />
<glyph unicode="s" glyph-name="s" horiz-adv-x="439" d="M213 -6Q191 -6 168 -3T123 6T83 19T53 35Q45 40 38 49T30 67Q30 84 41 96T70 108Q81 108 93 102T122 88T163 74T222 67Q272 67 294 89T317 146Q317 163 310 176T288 200T249 223T192 249Q113 283 80 318T46
405Q46 471 93 505T219 540Q248 540 278 534T332 518T371 494T387 468Q387 454 378 442T349 430Q337 430 326 435T300 448T266 460T218 466Q201 466 186 463T158 452T138 432T130 401Q130 392 133 383T147 363T175 342T222 319Q266 299 299 282T355 246T389 203T400
148Q400 112 387 84T348 35T289 5T213 -6Z" />
<glyph unicode="t" glyph-name="t" horiz-adv-x="312" d="M10 499Q10 513 19 523T42 533H94V613Q94 661 134 661Q175 661 175 613V533H270Q289 533 295 522T302 499Q302 488 296 477T270 465H175V171Q175 148 177 129T188 96T211 75T250 67Q266 67 276 58T287
32Q287 15 276 5T226 -6Q151 -6 123 38T94 170V465H42Q28 465 19 475T10 499Z" />
<glyph unicode="u" glyph-name="u" horiz-adv-x="515" d="M61 502Q61 519 72 529T101 539Q118 539 129 529T141 502V196Q141 62 258 62Q374 62 374 196V502Q374 519 385 529T414 539Q431 539 442 529T454 502V177Q454 133 440 99T400 41T338 6T258 -6Q214 -6 178
6T116 41T76 98T61 177V502Z" />
<glyph unicode="v" glyph-name="v" horiz-adv-x="446" d="M22 484Q20 489 19 494T18 503Q18 519 29 529T58 539Q72 539 83 532T99 511L223 134L347 511Q356 539 387 539Q404 539 416 529T428 503Q428 498 427 494T424 484L262 22Q256 5 246 0T223 -6Q211 -6 201
-1T184 22L22 484Z" />
<glyph unicode="w" glyph-name="w" horiz-adv-x="674" d="M28 476Q25 486 24 492T23 503Q23 519 34 529T64 539Q95 539 104 505L198 145L298 509Q302 523 311 531T337 539Q354 539 363 531T376 509L476 146L571 509Q578 539 609 539Q627 539 638 529T650 503Q650
498 649 492T645 476L516 24Q510 3 498 -1T475 -6Q447 -6 438 24L337 384L236 26Q231 6 221 0T197 -6Q166 -6 159 22L28 476Z" />
<glyph unicode="x" glyph-name="x" d="M400 -6Q375 -6 364 11L232 208L112 11Q101 -6 76 -6Q59 -6 48 3T36 29Q36 33 37 39T42 50L190 271L48 479Q45 484 43 490T40 503Q40 519 52 529T81 539Q96 539 104 534T117 521L241 338L358 520Q364 529 372 534T395 539Q412
539 424 529T436 503Q436 496 434 491T427 480L285 272L433 53Q440 42 440 29Q440 13 429 4T400 -6Z" />
<glyph unicode="y" glyph-name="y" horiz-adv-x="446" d="M22 484Q20 489 19 494T18 503Q18 519 29 529T58 539Q72 539 83 532T99 511L223 134L347 511Q357 539 387 539Q404 539 416 529T428 503Q428 498 427 494T424 484L195 -167Q192 -178 183 -185T155 -193Q138
-193 127 -183T116 -159Q116 -143 122 -128L181 33L22 484Z" />
<glyph unicode="z" glyph-name="z" horiz-adv-x="443" d="M305 460H77Q62 460 53 470T43 496Q43 512 52 522T77 533H377Q392 533 402 522T412 496Q412 482 406 473L134 74H384Q399 74 408 63T418 37Q418 22 409 11T384 0H62Q47 0 37 12T26 38Q26 49 35 64L305 460Z" />
<glyph unicode="{" glyph-name="braceleft" horiz-adv-x="298" d="M202 -100Q155 -100 128 -75T101 10V171Q101 239 90 269T41 300Q30 300 22 309T14 329Q14 341 22 350T41 359Q78 359 89 389T101 488V646Q101 704 128 732T202 760H240Q255 760 264 750T274 724Q274
709 265 699T240 688H219Q195 688 187 670T179 624V472Q179 435 171 409T151 367T125 342T97 331V328Q110 326 124 318T151 293T171 250T179 187V37Q179 8 187 -10T218 -28H240Q255 -28 264 -38T274 -64Q274 -79 265 -89T240 -100H202V-100Z" />
<glyph unicode="|" glyph-name="bar" horiz-adv-x="266" d="M97 736Q97 751 108 760T133 770Q148 770 158 761T169 737V-48Q169 -62 159 -71T133 -81Q119 -81 108 -72T97 -48V736Z" />
<glyph unicode="}" glyph-name="braceright" horiz-adv-x="298" d="M58 -100Q43 -100 34 -90T24 -64Q24 -49 33 -39T58 -28H81Q104 -28 111 -10T119 37V187Q119 224 127 250T147 292T173 317T201 328V331Q187 333 173 341T146 366T127 409T119 472V624Q119 652
111 670T80 688H58Q43 688 34 698T24 724Q24 739 33 749T58 760H96Q143 760 170 732T198 646V488Q198 420 209 390T257 359Q268 359 276 350T284 329Q284 318 276 309T257 300Q220 300 209 270T198 171V10Q198 -49 171 -74T96 -100H58Z" />
<glyph unicode="~" glyph-name="asciitilde" horiz-adv-x="600" d="M98 186Q85 186 75 193T64 218Q64 235 73 255T100 292T139 320T189 332Q222 332 249 321T301 295T350 269T400 257Q425 257 438 268T460 294T477 319T502 331Q515 331 525 323T536 298Q536 282
528 263T503 226T464 197T410 185Q373 185 346 196T295 222T249 247T199 259Q175 259 162 248T140 223T122 198T98 186Z" />
</font>
</defs>
</svg>
