<?xml version="1.0" standalone="no"?> <!DOCTYPE svg PUBLIC "-//W3C//DTD SVG 1.0//EN" "http://www.w3.org/TR/2001/REC-SVG-20010904/DTD/svg10.dtd" > <svg xmlns="http://www.w3.org/2000/svg" width="100%" height="100%">
<defs >
<font id="NetworkTT-Regular" horiz-adv-x="492" ><font-face
    font-family="Network TT"
    units-per-em="1000"
    panose-1="2 11 5 0 3 0 0 2 0 3"
    ascent="770"
    descent="-230"
    alphabetic="0" />
<missing-glyph horiz-adv-x="506" d="M3 700H503V0H3V700ZM423 650H83L253 395L423 650ZM453 95V605L283 350L453 95ZM423 50L253 305L83 50H423ZM53 95L223 350L53 605V95Z" />
<glyph unicode=" " glyph-name="space" horiz-adv-x="251" />
<glyph unicode="!" glyph-name="exclam" horiz-adv-x="279" d="M91 677Q91 697 105 706T139 716Q159 716 173 707T188 677V251Q188 231 174 217T139 202Q119 202 105 216T91 251V677ZM77 53Q77 79 95 97T140 116Q165 116 183 98T202 53Q202 27 184 9T140 -9Q114
-9 96 9T77 53Z" />
<glyph unicode="&quot;" glyph-name="quotedbl" horiz-adv-x="371" d="M68 676Q68 697 80 706T111 716Q130 716 142 707T154 676V521Q154 499 142 490T111 480Q93 480 81 489T68 521V676ZM217 676Q217 697 229 706T259 716Q278 716 290 707T302 676V521Q302 499
290 490T259 480Q241 480 229 489T217 521V676Z" />
<glyph unicode="#" glyph-name="numbersign" horiz-adv-x="561" d="M128 211H63Q46 211 38 221T30 247Q30 261 38 271T63 282H138L159 430H94Q77 430 69 440T61 465Q61 479 69 489T94 500H169L195 688Q200 717 232 717Q248 717 257 709T267 688Q267 681 266 673T263
657L241 500H361L387 688Q389 702 398 709T425 717Q439 717 449 710T459 688Q459 681 458 673T455 657L433 500H498Q515 500 523 490T531 465Q531 451 523 441T498 430H423L402 282H468Q485 282 493 272T501 247Q501 233 493 222T468 211H392L366 26Q364 10 356
3T329 -4Q314 -4 304 3T294 25Q294 30 295 39T298 56L320 211H200L174 26Q170 -4 137 -4Q122 -4 112 3T102 25Q102 30 103 38T106 56L128 211ZM210 282H330L351 430H231L210 282Z" />
<glyph unicode="$" glyph-name="dollar" horiz-adv-x="486" d="M28 78Q28 96 41 114T71 133Q81 133 94 125T125 107T168 89T227 79V328L213 334Q179 348 148 365T93 407T55 464T41 542Q41 581 55 612T93 666T152 702T227 720V761Q227 773 235 781T256 790Q267
790 275 782T283 762V719Q310 717 336 710T385 693T420 670T434 642Q434 634 431 625T422 607T408 594T390 588Q381 588 372 593T350 606T322 620T283 630V412Q322 394 355 375T412 331T449 274T462 198Q462 117 417 64T283 -4V-53Q283 -64 275 -72T256 -81Q244
-81 236 -73T227 -53V-9H225Q187 -9 152 -1T89 20T45 48T28 78ZM141 546Q141 505 163 482T227 438V631Q185 626 163 604T141 546ZM360 187Q360 225 342 251T283 300V85Q324 96 342 124T360 187Z" />
<glyph unicode="%" glyph-name="percent" horiz-adv-x="730" d="M191 382Q159 382 131 394T82 429T49 482T36 549Q36 587 48 618T82 673T132 708T191 721Q221 721 249 709T298 673T332 619T345 549Q345 513 333 483T299 430T250 395T191 382ZM539 -9Q507 -9 479
3T430 38T397 91T385 158Q385 196 397 227T431 282T481 317T539 330Q570 330 598 318T647 282T681 228T694 158Q694 122 682 92T648 39T599 4T539 -9ZM539 67Q557 67 570 75T593 96T606 125T610 157Q610 198 592 224T539 251Q506 251 487 225T468 157Q468 141 472
125T485 96T507 75T539 67ZM191 459Q209 459 222 467T244 488T257 517T261 549Q261 589 243 616T191 643Q157 643 138 616T119 549Q119 533 123 517T137 488T159 467T191 459ZM476 702Q483 716 492 722T520 728Q535 728 545 721T556 698Q556 690 551 680T541 661L252
11Q245 -3 236 -9T207 -16Q193 -16 182 -9T171 13Q171 21 176 32T186 52L476 702Z" />
<glyph unicode="&amp;" glyph-name="ampersand" horiz-adv-x="679" d="M241 -7Q194 -7 157 7T94 46T53 108T39 188Q39 226 51 258T85 319T134 372T194 418Q168 453 147 493T126 575Q126 645 170 682T288 719Q358 719 401 683T445 584Q445 559 439 537T417 494T378
450T320 403L460 226Q475 243 491 261T525 300Q535 312 543 319T558 331T572 337T589 339Q611 339 623 331T636 306Q636 295 624 280T590 241Q569 218 551 197T515 157L584 70Q591 62 599 50T607 30Q607 13 593 5T560 -4Q540 -4 530 1T507 24L452 93Q423 66 398
47T347 16T296 -1T241 -7ZM245 77Q282 77 316 95T398 160L247 351Q199 315 170 277T141 190Q141 139 170 108T245 77ZM218 574Q218 548 232 522T269 467Q317 500 335 526T353 576Q353 607 336 625T284 644Q256 644 237 626T218 574Z" />
<glyph unicode="&apos;" glyph-name="quotesingle" horiz-adv-x="214" d="M64 676Q64 697 76 706T107 716Q126 716 138 707T150 676V520Q150 499 138 490T107 480Q88 480 76 489T64 520V676Z" />
<glyph unicode="(" glyph-name="parenleft" horiz-adv-x="275" d="M196 -111Q180 -111 170 -102T149 -73Q129 -37 110 5T77 97T53 205T44 330Q44 397 53 454T76 562T110 654T149 732Q160 751 170 760T196 770Q214 770 229 756T244 725Q244 715 239 705T228 682Q214
658 198 622T169 541T146 442T136 330Q136 271 145 218T168 120T198 38T228 -23Q234 -35 239 -46T244 -66Q244 -83 229 -97T196 -111Z" />
<glyph unicode=")" glyph-name="parenright" horiz-adv-x="275" d="M84 -111Q66 -111 51 -97T36 -66Q36 -57 41 -46T53 -23Q66 1 82 37T112 119T135 218T145 330Q145 389 136 442T112 540T82 622T53 682Q46 694 41 704T36 725Q36 742 51 756T84 770Q100 770 110
761T131 732Q151 696 170 654T203 562T227 455T236 330Q236 263 227 205T204 97T170 5T131 -73Q120 -92 110 -101T84 -111Z" />
<glyph unicode="*" glyph-name="asterisk" horiz-adv-x="394" d="M146 536Q125 546 106 553T71 569T46 587T37 609Q37 623 47 633T75 643Q81 643 88 641T105 632T131 613T172 581Q168 609 166 626T163 654T161 670T160 681Q160 698 170 708T197 718Q214 718 224
708T234 681Q234 676 234 671T232 655T228 627T222 581Q248 600 264 612T291 631T308 640T319 643Q336 643 346 633T357 605Q357 596 352 590T335 576T302 559T248 536Q304 511 330 499T357 468Q357 451 347 441T319 430Q314 430 308 432T292 441T265 460T222 492Q226
464 228 447T231 419T233 402T234 392Q234 374 224 365T197 355Q180 355 170 364T160 392Q160 396 160 402T162 418T166 446T172 492Q150 475 135 464T109 445T90 434T75 430Q57 430 47 440T37 468Q37 486 62 498T146 536Z" />
<glyph unicode="+" glyph-name="plus" horiz-adv-x="606" d="M260 234H78Q61 234 52 247T43 277Q43 295 52 307T78 320H260V507Q260 525 273 534T303 543Q320 543 333 534T346 507V320H528Q546 320 555 308T564 277Q564 260 555 247T528 234H346V47Q346 30 333
21T303 11Q286 11 273 20T260 47V234Z" />
<glyph unicode="," glyph-name="comma" horiz-adv-x="257" d="M92 74Q100 88 110 97T137 107Q160 107 175 94T190 61Q190 50 186 40T176 19L113 -96Q104 -112 94 -123T68 -134Q44 -134 29 -119T13 -87Q13 -71 23 -54L92 74Z" />
<glyph unicode="-" glyph-name="hyphen" horiz-adv-x="380" d="M304 313Q322 313 331 301T340 271Q340 253 331 241T304 228H76Q59 228 50 240T40 271Q40 288 49 300T76 313H304Z" />
<glyph unicode="." glyph-name="period" horiz-adv-x="257" d="M66 53Q66 79 84 97T129 116Q154 116 172 98T191 53Q191 27 173 9T129 -9Q103 -9 85 9T66 53Z" />
<glyph unicode="/" glyph-name="slash" horiz-adv-x="401" d="M272 741Q277 755 287 762T318 770Q337 770 347 761T357 734Q357 727 355 717T351 702L130 -52Q125 -66 115 -73T85 -81Q65 -81 55 -72T44 -47Q44 -40 45 -32T49 -17L272 741Z" />
<glyph unicode="0" glyph-name="zero" horiz-adv-x="542" d="M41 356Q41 540 101 630T270 721Q379 721 439 631T500 356Q500 171 440 81T270 -9Q161 -9 101 81T41 356ZM146 356Q146 301 151 252T170 166T208 106T270 84Q308 84 332 106T370 165T389 252T395 356Q395
411 390 460T370 546T332 606T270 628Q232 628 208 606T170 547T151 460T146 356Z" />
<glyph unicode="1" glyph-name="one" horiz-adv-x="473" d="M224 89V583L121 506Q113 501 105 497T86 492Q77 492 69 497T53 509T42 526T38 544Q38 555 43 563T61 581L240 708Q247 712 257 714T277 716Q296 716 309 707T323 680V89H420Q438 89 447 76T456 45Q456
26 447 13T420 0H100Q82 0 73 13T64 45Q64 63 73 76T100 89H224Z" />
<glyph unicode="2" glyph-name="two" horiz-adv-x="481" d="M93 0Q75 0 62 13T48 44Q48 103 69 150T123 237T193 311T263 378T317 447T339 523Q339 571 312 600T237 630Q197 630 172 614T126 565Q117 551 108 544T86 537Q68 537 52 552T35 588Q35 600 44 614T66
645Q92 678 134 699T240 721Q283 721 319 707T381 666T421 604T436 525Q436 474 416 432T364 352T297 283T229 219T178 157T157 91H403Q424 91 433 77T443 46Q443 28 434 14T403 0H93Z" />
<glyph unicode="3" glyph-name="three" horiz-adv-x="498" d="M227 -9Q188 -9 154 -1T93 20T52 48T36 78Q36 96 49 114T79 133Q90 133 101 125T129 108T169 90T227 82Q284 82 317 114T350 203Q350 239 337 263T303 301T255 322T199 329Q176 329 167 343T157 375Q157
395 166 408T199 421Q220 421 242 429T282 452T311 487T322 534Q322 552 317 569T301 599T272 621T227 630Q200 630 180 624T144 609T116 594T93 587Q81 587 73 592T59 606T50 623T47 640Q47 649 53 660T75 680Q104 698 142 709T229 721Q274 721 310 708T372 671T410
615T424 545Q424 484 393 444T317 385Q384 365 420 319T457 197Q457 151 440 113T393 48T321 6T227 -9Z" />
<glyph unicode="4" glyph-name="four" horiz-adv-x="539" d="M515 223Q515 205 506 192T478 179H429V38Q429 15 415 5T380 -6Q359 -6 345 4T331 38V179H83Q65 179 49 195T33 227Q33 232 34 238T37 249L196 689Q206 716 243 716Q263 716 278 707T294 680Q294 669
287 653L146 268H331V481Q331 501 345 511T380 521Q400 521 414 511T429 481V268H478Q497 268 506 255T515 223Z" />
<glyph unicode="5" glyph-name="five" horiz-adv-x="516" d="M224 -9Q192 -9 161 -1T104 20T63 48T47 78Q47 96 60 114T90 133Q101 133 113 126T141 109T178 92T232 84Q292 84 321 126T350 238Q350 298 321 335T232 372Q213 372 198 368T169 359T144 349T122 345Q113
345 104 349T88 360T76 375T71 392V404L103 672Q105 692 114 702T146 712H402Q423 712 432 699T442 666Q442 647 432 634T402 621H185L165 438Q182 448 209 454T264 461Q307 461 343 444T404 398T443 328T457 242Q457 185 441 139T395 60T322 9T224 -9Z" />
<glyph unicode="6" glyph-name="six" horiz-adv-x="519" d="M262 -7Q203 -7 161 15T93 71T54 149T41 235Q41 286 53 342T93 460T168 583T285 709Q300 721 315 721Q324 721 333 716T349 703T362 685T367 665Q367 659 364 652T353 638Q314 605 269 557T186 436Q229
463 283 463Q329 463 365 446T427 399T465 327T478 233Q478 188 465 145T424 69T357 14T262 -7ZM257 86Q306 86 339 122T372 229Q372 297 341 335T259 374Q204 374 175 338T146 229Q146 202 152 176T173 130T207 98T257 86Z" />
<glyph unicode="7" glyph-name="seven" horiz-adv-x="462" d="M163 -6Q142 -6 129 2T115 28Q115 35 117 41T121 53L329 621H54Q34 621 25 634T15 666Q15 685 24 698T52 712H397Q405 712 412 707T426 694T436 677T440 659Q440 646 432 625L214 21Q208 6 197 0T163 -6Z" />
<glyph unicode="8" glyph-name="eight" horiz-adv-x="523" d="M262 -9Q209 -9 168 9T98 57T56 128T41 212Q41 274 71 324T151 396Q117 413 94 451T70 545Q70 582 84 614T124 670T185 707T262 721Q303 721 338 708T398 671T438 615T453 545Q453 490 429 452T373
396Q425 373 453 324T482 212Q482 168 468 128T425 58T356 9T262 -9ZM262 435Q309 435 331 464T354 535Q354 576 329 604T262 632Q219 632 194 604T169 537Q169 494 191 465T262 435ZM262 84Q290 84 311 96T347 127T369 171T377 221Q377 247 370 271T348 313T312
342T262 353Q234 353 213 342T176 313T154 271T146 221Q146 196 153 172T175 128T211 96T262 84Z" />
<glyph unicode="9" glyph-name="nine" horiz-adv-x="519" d="M257 721Q316 721 358 699T426 643T465 565T478 479Q478 428 466 371T426 254T351 130T234 5Q219 -7 204 -7Q195 -7 186 -2T169 11T157 28T152 48Q152 55 155 62T166 76Q205 109 250 157T333 278Q312
264 287 258T236 251Q189 251 153 268T92 315T54 387T41 481Q41 526 54 569T95 645T162 700T257 721ZM262 628Q213 628 180 592T147 485Q147 417 178 379T261 340Q315 340 344 376T373 485Q373 512 367 538T346 584T311 616T262 628Z" />
<glyph unicode=":" glyph-name="colon" horiz-adv-x="257" d="M66 374Q66 400 84 418T129 437Q154 437 172 419T191 374Q191 348 173 330T129 312Q103 312 85 330T66 374ZM66 53Q66 79 84 97T129 116Q154 116 172 98T191 53Q191 27 173 9T129 -9Q103 -9 85 9T66 53Z" />
<glyph unicode=";" glyph-name="semicolon" horiz-adv-x="257" d="M66 374Q66 400 84 418T129 437Q154 437 172 419T191 374Q191 348 173 330T129 312Q103 312 85 330T66 374ZM92 74Q100 88 110 97T137 107Q160 107 175 94T190 61Q190 50 186 40T176 19L113 -96Q104
-112 94 -123T68 -134Q44 -134 29 -119T13 -87Q13 -71 23 -54L92 74Z" />
<glyph unicode="&lt;" glyph-name="less" horiz-adv-x="606" d="M35 259Q35 271 40 280T62 299L493 518Q499 521 507 524T523 527Q539 527 547 517T555 490Q555 473 550 463T528 445L161 259L525 74Q545 64 550 55T555 28Q555 -9 523 -9Q515 -9 506 -6T488 2L62
219Q45 227 40 237T35 259Z" />
<glyph unicode="=" glyph-name="equal" horiz-adv-x="606" d="M528 412Q546 412 555 400T564 369Q564 352 555 339T528 326H78Q61 326 52 339T43 369Q43 387 52 399T78 412H528ZM528 199Q546 199 555 186T564 156Q564 138 555 126T528 113H78Q61 113 52 125T43
156Q43 173 52 186T78 199H528Z" />
<glyph unicode="&gt;" glyph-name="greater" horiz-adv-x="606" d="M571 259Q571 247 566 237T544 219L118 2Q109 -3 100 -6T83 -9Q51 -9 51 28Q51 45 56 54T81 74L445 259L78 445Q61 453 56 463T51 490Q51 506 59 516T83 527Q91 527 98 524T113 518L544 299Q561
290 566 281T571 259Z" />
<glyph unicode="?" glyph-name="question" horiz-adv-x="443" d="M148 363Q148 382 158 396T197 415Q254 426 284 453T314 524Q314 571 287 600T213 630Q173 630 148 613T101 565Q91 551 82 544T58 537Q49 537 41 541T26 552T15 567T10 584Q10 599 18 614T39 645Q66
678 110 699T215 721Q258 721 294 707T356 666T396 605T411 527Q411 485 398 453T363 397T311 359T246 336V249Q246 229 232 215T197 200Q177 200 163 214T148 249V363ZM135 53Q135 79 153 97T198 116Q223 116 241 98T260 53Q260 27 242 9T198 -9Q172 -9 154 9T135
53Z" />
<glyph unicode="@" glyph-name="at" horiz-adv-x="894" d="M325 202Q325 103 403 103Q435 103 461 124T507 176T538 244T549 312Q549 345 530 367T473 390Q440 390 413 372T366 326T336 265T325 202ZM458 -172Q371 -172 295 -140T161 -51T70 82T37 247Q37 333
70 408T159 540T292 628T456 661Q542 661 615 634T742 559T826 442T857 289Q857 220 832 169T769 83T686 31T601 14Q559 14 537 36T514 95Q495 65 460 41T376 17Q340 17 313 30T266 66T237 122T227 193Q227 247 244 297T293 387T367 451T460 475Q502 475 533 457T583
396L596 431Q602 448 613 453T639 459Q656 459 667 450T679 424Q679 420 678 413T673 395L604 175Q600 164 597 151T594 127Q594 114 600 103T626 91Q647 91 674 104T724 141T763 200T779 279Q779 352 755 408T687 503T584 561T455 581Q386 581 325 555T218 483T146
376T119 244Q119 172 145 111T218 4T325 -66T457 -92Q515 -92 557 -83T629 -60T680 -31T717 -3Q726 5 733 12T753 19Q768 19 781 5T794 -23Q794 -30 792 -35T780 -49Q759 -68 730 -89T660 -129T570 -160T458 -172Z" />
<glyph unicode="A" glyph-name="A" horiz-adv-x="580" d="M422 172H158L112 21Q105 4 93 -1T65 -6Q45 -6 29 3T13 32Q13 42 16 48L201 610Q211 641 219 662T236 695T257 713T290 718Q310 718 322 713T344 695T361 662T379 611L563 50Q566 44 566 32Q566 12 550
3T514 -6Q498 -6 486 -1T468 22L422 172ZM185 263H394L290 605L185 263Z" />
<glyph unicode="B" glyph-name="B" horiz-adv-x="539" d="M72 662Q72 712 121 712H274Q332 712 370 696T432 655T465 597T475 531Q475 470 442 435T354 385Q429 372 465 325T502 203Q502 164 490 127T452 62T384 17T280 0H121Q72 0 72 49V662ZM171 415H250Q274
415 297 422T337 444T365 477T376 521Q376 566 348 594T257 623H171V415ZM171 89H269Q402 89 402 209Q402 266 367 298T268 330H171V89Z" />
<glyph unicode="C" glyph-name="C" horiz-adv-x="558" d="M327 -9Q252 -9 198 16T110 89T59 204T43 356Q43 438 60 505T113 621T207 695T343 721Q381 721 417 712T482 689T527 657T544 625Q544 617 541 608T531 591T517 578T500 573Q488 573 476 582T446 601T403
621T341 630Q279 630 242 605T184 541T157 453T150 356Q150 308 156 259T183 171T239 107T334 82Q373 82 400 89T447 106T479 122T502 130Q510 130 517 125T530 112T539 95T543 79Q543 63 525 48T476 20T406 -1T327 -9Z" />
<glyph unicode="D" glyph-name="D" horiz-adv-x="628" d="M72 662Q72 712 121 712H298Q383 712 438 681T526 599T571 484T584 354Q584 273 567 208T515 96T425 25T294 0H121Q72 0 72 49V662ZM171 91H283Q343 91 380 112T439 169T469 255T477 363Q477 412 469 458T440
541T383 599T288 621H171V91Z" />
<glyph unicode="E" glyph-name="E" horiz-adv-x="485" d="M70 662Q70 712 119 712H429Q448 712 457 699T467 666Q467 647 458 634T429 621H170V401H355Q374 401 383 388T393 356Q393 337 384 324T355 310H169V91H429Q448 91 457 78T467 46Q467 27 458 14T429 0H119Q70
0 70 49V662Z" />
<glyph unicode="F" glyph-name="F" horiz-adv-x="454" d="M70 662Q70 712 119 712H430Q449 712 458 699T467 666Q467 647 458 634T430 621H169V401H356Q375 401 384 388T393 356Q393 337 384 324T356 310H169V34Q169 14 155 4T119 -6Q99 -6 85 4T70 34V662Z" />
<glyph unicode="G" glyph-name="G" horiz-adv-x="627" d="M524 371Q566 371 579 354T592 303V241Q592 123 523 57T328 -9Q253 -9 199 16T111 89T60 204T43 356Q43 438 60 505T114 621T208 695T346 721Q385 721 421 712T486 689T532 657T550 625Q550 617 547 608T537
591T523 578T506 573Q494 573 482 582T451 601T407 621T344 630Q281 630 243 605T185 541T157 453T150 356Q150 308 156 259T183 171T239 107T334 82Q415 82 454 124T494 237V280H391Q368 280 358 293T348 326Q348 346 358 358T391 371H524Z" />
<glyph unicode="H" glyph-name="H" horiz-adv-x="646" d="M171 35Q171 14 157 5T121 -5Q101 -5 87 4T72 35V676Q72 696 86 706T121 716Q142 716 156 706T171 676V411H476V676Q476 696 490 706T525 716Q546 716 560 706T575 676V35Q575 14 561 5T525 -5Q505 -5
491 4T476 35V319H171V35Z" />
<glyph unicode="I" glyph-name="I" horiz-adv-x="381" d="M80 630Q59 630 50 642T40 671Q40 688 49 700T75 712H306Q323 712 332 700T341 671Q341 654 332 642T306 630H240V82H306Q323 82 332 70T341 41Q341 24 332 12T306 0H75Q58 0 49 12T40 41Q40 58 49 70T75
82H141V630H80Z" />
<glyph unicode="J" glyph-name="J" horiz-adv-x="419" d="M249 676Q249 696 263 706T299 716Q319 716 333 706T348 676V181Q348 140 339 105T310 45T256 5T172 -9Q142 -9 114 -1T65 20T30 48T17 76Q17 94 29 112T59 130Q70 130 80 123T103 107T130 91T169 84Q217
84 233 111T249 189V676Z" />
<glyph unicode="K" glyph-name="K" horiz-adv-x="545" d="M169 402L404 694Q412 705 422 710T453 716Q475 716 488 708T502 682Q502 672 496 663T485 646L260 370L511 67Q519 57 524 47T530 27Q530 11 517 3T482 -6Q462 -6 453 -2T434 14L169 331V34Q169 14 154
4T119 -6Q99 -6 85 4T70 34V676Q70 696 84 706T119 716Q140 716 154 706T169 676V402Z" />
<glyph unicode="L" glyph-name="L" horiz-adv-x="449" d="M70 676Q70 696 84 706T119 716Q140 716 154 706T169 676V91H402Q421 91 430 78T439 46Q439 27 430 14T402 0H119Q70 0 70 49V676Z" />
<glyph unicode="M" glyph-name="M" horiz-adv-x="793" d="M668 638Q691 490 707 388T733 220T749 117T757 62T760 39T761 32Q761 12 746 3T709 -6Q689 -6 677 1T661 26L585 577L463 70Q453 28 438 14T396 0Q369 0 355 14T330 70L207 576L131 26Q129 8 116 1T83
-6Q63 -6 47 3T31 30Q31 33 31 37T33 47L124 638Q128 663 134 678T149 701T172 713T206 716Q239 716 256 699T284 636L396 144L509 636Q520 684 538 700T588 716Q607 716 620 713T643 702T658 678T668 638Z" />
<glyph unicode="N" glyph-name="N" horiz-adv-x="646" d="M72 678Q72 696 84 706T117 716Q137 716 149 709T169 689L476 199V676Q476 696 490 706T525 716Q546 716 560 706T575 676V35Q575 15 562 5T531 -6Q497 -6 481 18L171 511V34Q171 14 157 4T121 -6Q101
-6 87 4T72 34V678Z" />
<glyph unicode="O" glyph-name="O" horiz-adv-x="663" d="M331 -9Q254 -9 200 16T111 89T60 204T43 356Q43 436 59 503T110 618T199 694T331 721Q407 721 462 694T551 619T602 503T619 356Q619 272 603 205T552 90T462 17T331 -9ZM331 82Q389 82 424 107T479 171T505
259T512 356Q512 404 506 453T480 541T425 605T331 630Q273 630 238 605T183 541T157 453T150 356Q150 308 156 259T182 171T237 107T331 82Z" />
<glyph unicode="P" glyph-name="P" horiz-adv-x="517" d="M70 661Q70 712 119 712H282Q338 712 378 693T445 642T484 571T497 490Q497 443 484 401T444 328T373 278T270 259H169V34Q169 14 155 4T119 -6Q99 -6 85 4T70 34V661ZM169 348H264Q301 348 326 360T368
392T390 436T397 485Q397 511 390 536T368 580T327 611T264 623H169V348Z" />
<glyph unicode="Q" glyph-name="Q" horiz-adv-x="663" d="M319 -9Q247 -9 195 16T109 89T59 204T43 356Q43 436 59 503T110 618T199 694T331 721Q407 721 462 695T551 620T602 505T619 356Q619 260 594 187T519 66L567 -17Q577 -31 577 -44Q577 -61 562 -75T524
-90Q509 -90 500 -80T483 -55L445 16Q387 -9 319 -9ZM331 82Q371 82 401 94L352 178Q347 186 344 194T340 213Q340 231 357 245T392 259Q406 259 415 251T431 228L471 153Q496 192 504 245T512 356Q512 404 506 453T480 541T425 605T331 630Q273 630 238 605T183
541T157 453T150 356Q150 308 156 259T182 171T237 107T331 82Z" />
<glyph unicode="R" glyph-name="R" horiz-adv-x="547" d="M70 666Q70 688 82 700T115 712H282Q338 712 378 696T445 652T484 588T497 512Q497 437 464 384T357 311L519 63Q524 54 528 46T533 28Q533 12 519 3T483 -6Q462 -6 450 -1T429 19L253 301H169V34Q169
14 155 4T119 -6Q99 -6 85 4T70 34V666ZM169 390H264Q301 390 326 399T368 424T390 461T397 508Q397 532 390 553T368 589T327 614T264 623H169V390Z" />
<glyph unicode="S" glyph-name="S" horiz-adv-x="498" d="M231 -9Q193 -9 158 -1T95 20T51 48T34 78Q34 96 47 114T77 133Q88 133 101 125T132 108T174 90T234 82Q268 82 291 91T329 115T350 149T357 190Q357 214 350 233T327 270T284 302T219 334Q186 348 155
365T100 407T62 464T47 542Q47 585 63 618T108 674T176 709T262 721Q291 721 322 715T380 698T424 673T441 642Q441 634 438 625T428 607T414 594T396 588Q385 588 374 594T348 609T311 623T259 630Q211 630 183 606T154 545Q154 520 162 502T187 470T227 443T282
416Q323 397 356 378T414 333T451 276T464 198Q464 152 449 114T405 49T333 6T231 -9Z" />
<glyph unicode="T" glyph-name="T" horiz-adv-x="461" d="M43 621Q24 621 15 634T5 666Q5 685 14 698T43 712H419Q438 712 447 699T456 666Q456 647 447 634T419 621H280V34Q280 14 266 4T231 -6Q210 -6 196 4T181 34V621H43Z" />
<glyph unicode="U" glyph-name="U" horiz-adv-x="630" d="M63 676Q63 696 77 706T113 716Q133 716 147 706T162 676V263Q162 172 203 129T315 86Q386 86 427 129T468 263V676Q468 696 482 706T517 716Q538 716 552 706T567 676V257Q567 193 550 144T499 61T420
10T315 -7Q257 -7 211 10T131 60T81 143T63 257V676Z" />
<glyph unicode="V" glyph-name="V" horiz-adv-x="556" d="M277 126L455 687Q462 704 474 710T502 716Q522 716 538 708T555 682Q555 677 554 672T551 662L365 100Q355 69 347 49T330 16T309 -1T278 -6Q259 -6 247 -1T225 16T209 49T191 100L5 659Q3 664 2 670T0
682Q0 700 17 708T54 716Q70 716 82 710T100 687L277 126Z" />
<glyph unicode="W" glyph-name="W" horiz-adv-x="794" d="M25 621Q21 637 19 647T16 662T15 671T15 677Q15 698 30 707T67 716Q86 716 98 708T114 684L229 142L330 616Q338 657 354 672T397 687Q425 687 440 672T464 615L565 142L680 684Q684 702 696 709T728
716Q748 716 763 707T779 678Q779 675 779 671T777 661L646 75Q640 51 634 35T619 10T598 -2T569 -6Q550 -6 537 -3T515 10T500 35T489 75L397 513L304 75Q299 50 293 35T278 10T256 -2T224 -6Q207 -6 195 -3T174 10T159 34T147 75L25 621Z" />
<glyph unicode="X" glyph-name="X" horiz-adv-x="535" d="M268 454L413 684Q424 701 436 708T472 716Q495 716 508 708T521 682Q521 672 515 661T503 640L324 365L508 78Q518 63 524 51T530 28Q530 12 517 3T482 -6Q458 -6 448 1T426 27L263 282L109 25Q98 8 88
1T53 -6Q31 -6 18 3T5 28Q5 38 11 50T28 78L206 371L36 638Q27 652 21 662T15 683Q15 700 28 708T64 716Q87 716 99 709T122 684L268 454Z" />
<glyph unicode="Y" glyph-name="Y" horiz-adv-x="516" d="M209 274L16 639Q11 648 6 660T1 683Q1 700 15 708T53 716Q76 716 85 709T103 686L258 374L413 686Q421 701 430 708T464 716Q487 716 501 708T516 682Q516 672 511 660T501 639L308 274V41Q308 15 295
5T258 -6Q236 -6 223 4T209 41V274Z" />
<glyph unicode="Z" glyph-name="Z" horiz-adv-x="486" d="M65 0Q56 0 48 5T34 17T24 33T20 50Q20 62 25 72T37 94L334 621H68Q49 621 40 634T31 666Q31 686 40 699T68 712H412Q432 712 444 695T456 661Q456 651 451 640T440 621L141 91H429Q447 91 456 78T466
46Q466 27 457 14T429 0H65Z" />
<glyph unicode="[" glyph-name="bracketleft" horiz-adv-x="303" d="M242 -15Q259 -15 268 -27T278 -57Q278 -75 269 -87T242 -100H142Q93 -100 93 -51V711Q93 760 142 760H242Q259 760 268 748T278 717Q278 700 269 688T242 675H185V-15H242Z" />
<glyph unicode="\" glyph-name="backslash" horiz-adv-x="401" d="M352 -17Q354 -24 355 -32T357 -47Q357 -62 347 -71T317 -81Q297 -81 287 -74T272 -52L50 702Q48 707 46 717T44 734Q44 751 54 760T84 770Q104 770 114 763T129 741L352 -17Z" />
<glyph unicode="]" glyph-name="bracketright" horiz-adv-x="303" d="M118 -15V675H60Q43 675 34 687T25 717Q25 735 34 747T60 760H161Q210 760 210 711V-51Q210 -100 161 -100H60Q43 -100 34 -88T25 -57Q25 -40 34 -28T60 -15H118Z" />
<glyph unicode="^" glyph-name="asciicircum" horiz-adv-x="606" d="M261 690Q270 707 280 712T303 718Q315 718 325 713T345 690L539 340Q545 329 547 322T549 307Q549 293 539 286T511 278Q494 279 483 287T461 314L303 603L144 314Q134 295 123 287T95 278Q78
278 68 285T57 307Q57 315 59 322T67 340L261 690Z" />
<glyph unicode="_" glyph-name="underscore" horiz-adv-x="506" d="M3 -125Q-9 -125 -17 -119T-26 -100Q-26 -88 -18 -82T3 -75H503Q515 -75 523 -81T532 -100Q532 -112 524 -118T503 -125H3V-125Z" />
<glyph unicode="`" glyph-name="grave" horiz-adv-x="215" d="M190 686Q204 681 211 670T219 644Q219 626 207 614T177 602Q165 602 157 606L4 668Q-23 679 -23 707Q-23 725 -10 737T22 750Q30 750 38 748L190 686Z" />
<glyph unicode="a" glyph-name="a" horiz-adv-x="505" d="M202 -7Q170 -7 140 1T87 29T49 80T34 156Q34 198 51 228T96 277T160 306T234 315Q275 315 305 312T360 303V321Q360 393 329 424T240 455Q209 455 189 450T154 438T129 426T107 420Q91 420 80 436T68
469Q68 484 81 497T118 521T173 537T240 543Q354 543 404 486T455 306V34Q455 14 441 4T406 -6Q386 -6 374 4T361 34V74Q335 29 296 11T202 -7ZM136 158Q136 117 158 97T222 77Q249 77 273 88T317 119T347 166T358 226Q336 234 309 237T252 240Q196 240 166 217T136
158Z" />
<glyph unicode="b" glyph-name="b" horiz-adv-x="558" d="M523 268Q523 207 510 157T469 70T399 13T299 -7Q254 -7 219 11T163 64V34Q163 14 150 4T117 -6Q97 -6 83 4T69 34V730Q69 750 83 760T118 770Q138 770 152 760T166 730V448Q183 490 218 516T314 543Q368
543 407 521T472 462T510 374T523 268ZM421 269Q421 303 415 336T393 395T354 437T294 453Q258 453 234 437T194 395T173 336T166 269Q166 235 172 202T194 142T233 100T294 83Q330 83 354 99T394 142T415 201T421 269Z" />
<glyph unicode="c" glyph-name="c" horiz-adv-x="454" d="M262 -7Q205 -7 163 13T92 69T49 156T35 268Q35 324 49 374T92 461T165 521T271 543Q301 543 328 538T375 523T407 503T419 479Q419 459 407 443T379 427Q370 427 363 431T344 440T316 449T271 453Q233
453 207 437T165 395T143 335T136 268Q136 234 142 201T164 142T203 99T264 83Q291 83 308 87T338 96T359 105T379 109Q395 109 407 94T419 60Q419 44 403 31Q386 16 347 5T262 -7Z" />
<glyph unicode="d" glyph-name="d" horiz-adv-x="558" d="M245 -7Q192 -7 153 13T87 69T48 156T35 268Q35 324 48 374T88 461T157 521T256 543Q301 543 335 527T392 479V730Q392 750 406 759T441 769Q461 769 475 760T489 730V34Q489 14 475 4T440 -6Q420 -6 408
4T395 34V85Q377 44 342 19T245 -7ZM136 269Q136 235 142 202T164 142T203 100T263 83Q298 83 322 99T362 142T385 201T392 269Q392 303 386 336T364 395T325 437T264 453Q228 453 204 437T164 395T143 336T136 269Z" />
<glyph unicode="e" glyph-name="e" horiz-adv-x="520" d="M264 -7Q205 -7 162 13T91 69T49 155T35 268Q35 324 49 374T91 461T162 521T263 543Q320 543 361 521T428 463T467 380T479 283Q479 260 468 245T435 230H138Q141 200 149 174T173 127T213 94T274 82Q305
82 326 86T363 95T390 105T410 109Q426 109 438 93T450 60Q450 40 423 27Q397 14 361 4T264 -7ZM378 304Q377 332 371 359T350 409T313 444T259 457Q229 457 207 444T170 408T147 359T138 304H378Z" />
<glyph unicode="f" glyph-name="f" horiz-adv-x="309" d="M10 490Q10 508 19 520T45 533H99V585Q99 681 136 725T241 770Q286 770 298 757T311 723Q311 704 301 693T264 682Q226 682 211 658T196 583V533H255Q277 533 284 520T291 490Q291 475 284 462T255 448H196V41Q196
15 183 5T147 -6Q125 -6 112 4T99 41V448H45Q28 448 19 460T10 490Z" />
<glyph unicode="g" glyph-name="g" horiz-adv-x="557" d="M35 268Q35 324 48 374T88 461T156 521T254 543Q300 543 336 525T394 469V501Q394 521 407 530T440 540Q460 540 474 531T489 501V37Q489 -29 470 -74T417 -147T340 -187T247 -199Q212 -199 177 -193T112
-176T65 -151T46 -120Q46 -100 59 -83T89 -66Q100 -66 113 -73T144 -88T188 -104T249 -111Q280 -111 306 -104T351 -80T380 -38T391 25V70Q368 38 334 17T251 -4Q195 -4 155 16T88 72T48 158T35 268ZM136 269Q136 235 142 202T164 142T202 100T260 83Q296 83 321
99T362 142T385 201T392 269Q392 303 386 336T364 395T325 437T264 453Q228 453 204 437T164 395T143 336T136 269Z" />
<glyph unicode="h" glyph-name="h" horiz-adv-x="548" d="M69 730Q69 750 83 760T117 770Q137 770 151 760T166 730V465Q191 504 225 523T315 543Q348 543 378 532T432 497T468 438T482 355V34Q482 14 468 4T433 -6Q413 -6 399 4T385 34V344Q385 395 359 426T284
457Q230 457 198 419T166 311V34Q166 14 152 4T117 -6Q97 -6 83 4T69 34V730Z" />
<glyph unicode="i" glyph-name="i" horiz-adv-x="235" d="M57 673Q57 699 75 716T117 734Q142 734 159 717T177 673Q177 648 160 631T117 614Q93 614 75 631T57 673ZM69 501Q69 521 83 530T117 540Q137 540 151 531T166 501V34Q166 14 152 4T117 -6Q97 -6 83 4T69
34V501Z" />
<glyph unicode="j" glyph-name="j" horiz-adv-x="235" d="M69 490Q69 519 81 529T117 540Q140 540 153 530T166 490V-13Q166 -107 128 -153T7 -199Q-19 -199 -33 -188T-48 -160Q-48 -140 -36 -124T-4 -108Q42 -108 55 -85T69 -10V490ZM57 673Q57 699 75 716T117
734Q142 734 159 717T177 673Q177 648 160 631T117 614Q93 614 75 631T57 673Z" />
<glyph unicode="k" glyph-name="k" horiz-adv-x="477" d="M69 730Q69 750 83 760T117 770Q137 770 151 760T166 730V318L347 518Q355 529 364 534T394 540Q416 540 431 531T446 506Q446 496 442 489T429 470L264 290L451 59Q462 44 462 27Q462 11 448 3T411 -6Q378
-6 364 14L166 260V34Q166 14 152 4T117 -6Q97 -6 83 4T69 34V730Z" />
<glyph unicode="l" glyph-name="l" horiz-adv-x="235" d="M69 730Q69 750 83 760T117 770Q137 770 151 760T166 730V34Q166 14 152 4T117 -6Q97 -6 83 4T69 34V730Z" />
<glyph unicode="m" glyph-name="m" horiz-adv-x="853" d="M69 501Q69 521 83 530T117 540Q137 540 150 531T163 501V456Q189 501 224 522T310 543Q357 543 396 521T457 449Q481 493 518 518T618 543Q654 543 685 532T739 497T775 438T788 355V35Q788 15 775 5T740
-6Q719 -6 705 4T691 35V344Q691 402 664 429T596 457Q545 457 511 419T477 311V34Q477 14 463 4T429 -6Q408 -6 394 4T380 34V344Q380 394 355 425T282 457Q228 457 197 418T166 311V34Q166 14 152 4T117 -6Q97 -6 83 4T69 34V501Z" />
<glyph unicode="n" glyph-name="n" horiz-adv-x="547" d="M69 501Q69 521 83 530T117 540Q137 540 150 531T163 501V456Q189 501 224 522T315 543Q348 543 378 532T432 497T468 438T482 355V34Q482 14 468 4T433 -6Q413 -6 399 4T385 34V344Q385 395 359 426T284
457Q230 457 198 419T166 311V34Q166 14 152 4T117 -6Q97 -6 83 4T69 34V501Z" />
<glyph unicode="o" glyph-name="o" horiz-adv-x="528" d="M35 268Q35 324 49 374T91 461T162 521T264 543Q323 543 366 521T438 462T479 374T493 268Q493 207 479 157T437 70T365 13T264 -7Q206 -7 163 13T92 69T49 156T35 268ZM136 269Q136 235 142 202T164 142T203
100T264 83Q300 83 324 99T364 142T385 201T392 269Q392 303 386 336T364 395T325 437T264 453Q228 453 204 437T164 395T143 336T136 269Z" />
<glyph unicode="p" glyph-name="p" horiz-adv-x="558" d="M523 268Q523 207 510 157T469 70T399 13T299 -7Q257 -7 222 10T166 60V-159Q166 -179 152 -189T117 -199Q97 -199 83 -189T69 -159V501Q69 521 83 530T118 540Q138 540 150 531T163 501V446Q182 490 217
516T316 543Q369 543 408 522T472 463T510 375T523 268ZM421 269Q421 303 415 336T393 395T354 437T294 453Q258 453 234 437T194 395T173 336T166 269Q166 235 172 202T194 142T233 100T294 83Q330 83 354 99T394 142T415 201T421 269Z" />
<glyph unicode="q" glyph-name="q" horiz-adv-x="553" d="M35 268Q35 324 48 374T88 461T157 521T257 543Q301 543 337 525T394 469V494Q394 520 406 530T440 540Q462 540 475 530T489 494V-152Q489 -178 476 -188T440 -199Q417 -199 404 -189T391 -152V81Q373
40 339 17T245 -7Q192 -7 153 13T87 69T48 156T35 268ZM137 269Q137 235 143 202T164 142T202 100T261 83Q297 83 322 99T363 142T386 201T393 269Q393 303 387 336T365 395T326 437T265 453Q229 453 205 437T165 395T144 336T137 269Z" />
<glyph unicode="r" glyph-name="r" horiz-adv-x="342" d="M63 501Q63 521 77 530T111 540Q131 540 144 531T157 501V456Q177 493 208 518T290 543Q321 543 330 529T340 494Q340 474 330 460T291 446Q232 446 196 415T160 311V34Q160 14 146 4T111 -6Q91 -6 77
4T63 34V501Z" />
<glyph unicode="s" glyph-name="s" horiz-adv-x="451" d="M221 -7Q199 -7 177 -4T133 4T95 16T65 31Q57 36 45 46T33 70Q33 89 46 105T78 121Q89 121 101 115T130 101T170 87T227 81Q272 81 292 100T312 149Q312 164 306 175T286 197T250 218T194 243Q117 275
83 310T48 402Q48 468 97 505T229 543Q259 543 289 537T344 521T383 497T399 469Q399 452 388 436T356 420Q345 420 334 425T308 437T275 449T228 455Q197 455 173 442T148 396Q148 378 165 361T236 320Q281 301 313 284T368 247T400 205T411 151Q411 113 397 84T358
34T297 4T221 -7Z" />
<glyph unicode="t" glyph-name="t" horiz-adv-x="340" d="M10 491Q10 508 19 521T45 534H99V618Q99 644 112 655T147 666Q170 666 183 655T196 618V534H291Q313 534 319 520T326 491Q326 476 320 462T291 448H196V184Q196 134 209 108T267 82Q290 82 300 71T311
41Q311 30 309 22T299 7T277 -2T240 -6Q198 -6 171 7T127 44T105 102T99 179V448H45Q28 448 19 461T10 491Z" />
<glyph unicode="u" glyph-name="u" horiz-adv-x="534" d="M60 501Q60 521 74 530T109 540Q129 540 143 531T157 501V202Q157 141 186 110T267 79Q319 79 347 110T376 202V501Q376 521 390 530T425 540Q445 540 459 531T474 501V182Q474 135 459 100T415 41T350
5T267 -7Q222 -7 185 5T119 41T76 100T60 182V501Z" />
<glyph unicode="v" glyph-name="v" horiz-adv-x="464" d="M23 480Q21 486 19 493T17 506Q17 523 31 531T66 540Q83 540 97 533T117 509L232 157L347 509Q353 527 366 533T397 540Q419 540 433 532T447 506Q447 499 445 492T441 480L278 25Q271 6 260 0T232 -6Q215
-6 204 -1T186 24L23 480Z" />
<glyph unicode="w" glyph-name="w" horiz-adv-x="687" d="M29 471Q26 482 25 489T23 504Q23 540 74 540Q92 540 103 533T120 506L206 166L296 506Q301 525 312 532T343 540Q383 540 390 506L480 167L567 509Q572 526 584 533T613 540Q663 540 663 504Q663 496
662 490T657 472L528 25Q522 4 509 -1T481 -6Q462 -6 452 0T436 25L343 363L251 27Q245 5 234 0T204 -6Q167 -6 159 23L29 471Z" />
<glyph unicode="x" glyph-name="x" horiz-adv-x="490" d="M409 -6Q394 -6 381 -2T360 13L239 195L130 13Q123 2 110 -2T81 -6Q61 -6 47 2T32 28Q32 33 34 40T42 55L187 272L48 474Q36 491 36 506Q36 523 49 531T86 540Q108 540 118 535T137 518L248 352L353 517Q361
529 372 534T404 540Q427 540 440 532T454 506Q454 492 441 475L300 274L447 58Q458 41 458 28Q458 11 445 3T409 -6Z" />
<glyph unicode="y" glyph-name="y" horiz-adv-x="464" d="M23 480Q21 486 19 493T17 506Q17 523 31 531T66 540Q83 540 97 534T117 509L232 158L347 509Q352 526 366 533T397 540Q419 540 433 532T447 506Q447 499 445 492T441 480L207 -171Q198 -199 155 -199Q135
-199 122 -190T108 -166Q108 -157 110 -149T116 -131L182 38L23 480Z" />
<glyph unicode="z" glyph-name="z" horiz-adv-x="462" d="M296 447H80Q62 447 53 460T44 491Q44 510 53 523T80 536H389Q406 536 416 520T427 489Q427 474 419 463L162 89H398Q416 89 425 76T434 45Q434 26 425 13T398 0H72Q55 0 43 16T30 48Q30 61 40 75L296 447Z" />
<glyph unicode="{" glyph-name="braceleft" horiz-adv-x="321" d="M213 -100Q162 -100 134 -73T105 15V180Q105 243 93 269T46 295Q32 295 24 305T16 328Q16 342 24 352T46 362Q81 362 93 388T105 477V633Q105 694 133 727T213 760H260Q278 760 287 748T296 717Q296
700 287 688T260 675H235Q212 675 205 659T197 614V462Q197 426 189 402T167 362T138 339T109 329V327Q122 325 137 318T165 296T188 256T197 195V48Q197 19 205 2T234 -15H260Q278 -15 287 -27T296 -57Q296 -75 287 -87T260 -100H213V-100Z" />
<glyph unicode="|" glyph-name="bar" horiz-adv-x="273" d="M95 735Q95 752 107 761T137 770Q154 770 166 762T178 736V-46Q178 -63 166 -72T137 -81Q120 -81 108 -73T95 -47V735Z" />
<glyph unicode="}" glyph-name="braceright" horiz-adv-x="321" d="M61 -100Q43 -100 34 -88T25 -57Q25 -40 34 -28T61 -15H87Q107 -15 115 2T124 48V195Q124 231 133 255T155 295T184 318T212 327V329Q198 331 183 338T155 361T133 401T124 462V614Q124 643 117
659T86 675H61Q43 675 34 687T25 717Q25 735 34 747T61 760H108Q159 760 187 727T216 633V477Q216 414 228 388T275 362Q289 362 296 352T304 328Q304 315 297 305T275 295Q240 295 228 269T216 180V15Q216 -46 188 -73T108 -100H61Z" />
<glyph unicode="~" glyph-name="asciitilde" horiz-adv-x="606" d="M98 187Q82 187 70 196T58 223Q58 241 68 262T96 301T138 331T191 343Q224 343 252 332T305 307T355 282T404 270Q428 270 441 281T464 305T483 330T508 341Q524 341 537 331T550 303Q550 285
541 264T513 226T470 196T414 184Q378 184 350 195T298 220T250 245T201 257Q178 257 165 246T142 222T123 198T98 187Z" />
</font>
</defs>
</svg>
