<?xml version="1.0" standalone="no"?> <!DOCTYPE svg PUBLIC "-//W3C//DTD SVG 1.0//EN" "http://www.w3.org/TR/2001/REC-SVG-20010904/DTD/svg10.dtd" > <svg xmlns="http://www.w3.org/2000/svg" width="100%" height="100%">
<defs >
<font id="NetworkTT-UltraLight" horiz-adv-x="464" ><font-face
    font-family="Network TT"
    units-per-em="1000"
    panose-1="2 11 2 0 3 0 0 2 0 3"
    ascent="770"
    descent="-230"
    alphabetic="0" />
<missing-glyph horiz-adv-x="500" d="M0 700H500V0H0V700ZM420 650H80L250 395L420 650ZM450 95V605L280 350L450 95ZM420 50L250 305L80 50H420ZM50 95L220 350L50 605V95Z" />
<glyph unicode=" " glyph-name="space" horiz-adv-x="236" />
<glyph unicode="!" glyph-name="exclam" horiz-adv-x="280" d="M112 684Q112 697 121 708T144 719Q158 719 167 708T176 684V235Q176 221 167 212T144 203Q130 203 121 212T112 235V684ZM96 43Q96 63 110 77T144 92Q164 92 178 78T193 43Q193 23 179 9T144 -5Q124
-5 110 9T96 43Z" />
<glyph unicode="&quot;" glyph-name="quotedbl" horiz-adv-x="298" d="M58 681Q58 698 67 708T88 719Q100 719 109 709T118 681V557Q118 541 109 531T88 520Q76 520 67 530T58 557V681ZM181 681Q181 698 190 708T210 719Q222 719 231 709T240 681V557Q240 541
231 531T210 520Q199 520 190 530T181 557V681Z" />
<glyph unicode="#" glyph-name="numbersign" horiz-adv-x="530" d="M119 218H45Q34 218 25 226T16 246Q16 258 25 266T45 274H127L151 438H76Q65 438 56 446T47 466Q47 479 56 486T76 494H159L188 696Q190 705 197 712T215 720Q229 720 236 710T244 689Q244 681
243 672T240 660L216 494H352L381 696Q383 705 390 712T409 720Q421 720 429 711T437 689Q437 681 436 673T433 660L409 494H486Q497 494 506 487T515 466Q515 454 506 446T486 438H401L378 274H454Q466 274 474 266T483 246Q483 233 475 226T454 218H370L342 21Q337
-7 314 -7Q301 -7 294 2T286 24Q286 31 287 40T290 53L313 218H176L148 21Q143 -7 121 -7Q109 -7 101 2T92 24Q92 31 94 39T96 53L119 218ZM184 274H321L344 438H208L184 274Z" />
<glyph unicode="$" glyph-name="dollar" horiz-adv-x="447" d="M25 78Q25 91 33 98T56 106Q67 106 77 98T103 80T142 62T203 54H208V350Q178 363 148 379T93 419T53 476T37 554Q37 625 84 666T208 715V754Q208 765 215 773T234 781Q245 781 252 774T260 755V716Q287
714 311 708T354 692T384 671T396 647Q396 619 366 619Q357 619 348 624T328 635T300 648T260 657V395Q294 379 323 362T373 321T407 267T420 193Q420 158 411 126T381 69T331 25T260 0V-54Q260 -65 253 -73T234 -81Q223 -81 216 -73T208 -54V-5H206Q165 -5 132
4T75 25T38 52T25 78ZM107 552Q107 525 115 505T136 470T168 442T208 419V656Q161 649 134 621T107 552ZM350 187Q350 210 346 229T331 264T303 296T260 325V61Q307 75 328 110T350 187Z" />
<glyph unicode="%" glyph-name="percent" horiz-adv-x="747" d="M196 369Q166 369 138 381T89 415T55 469T42 538Q42 580 55 613T89 669T139 704T196 717Q225 717 253 705T302 669T337 613T350 538Q350 500 338 469T304 416T254 381T196 369ZM550 -5Q520 -5 492
7T443 41T410 95T397 165Q397 206 410 239T444 295T493 330T550 343Q580 343 607 331T656 295T691 239T704 165Q704 127 692 96T658 42T609 7T550 -5ZM550 50Q573 50 590 60T617 86T633 123T638 164Q638 217 615 251T550 286Q508 286 485 252T462 164Q462 144 467
124T482 87T510 60T550 50ZM196 424Q219 424 235 434T262 461T278 498T283 538Q283 591 261 625T196 660Q154 660 131 626T108 538Q108 518 113 498T128 462T156 435T196 424ZM475 706Q478 717 484 722T499 728Q510 728 518 719T527 698Q527 693 527 691T525 685L271
8Q267 -2 261 -9T244 -16Q234 -16 226 -7T218 13Q218 24 219 28L475 706Z" />
<glyph unicode="&amp;" glyph-name="ampersand" horiz-adv-x="665" d="M226 -6Q185 -6 152 8T94 47T57 108T43 184Q43 223 55 257T88 321T137 378T198 429Q172 464 152 504T131 587Q131 654 169 686T271 718Q334 718 372 688T410 601Q410 575 404 553T382 509T344
465T288 418L451 203Q469 223 488 244T530 292Q553 318 563 324T581 331Q592 331 601 321T610 297Q610 289 609 285T593 266Q563 233 538 205T489 153L572 46Q574 41 574 38T573 30Q573 17 564 5T541 -7Q536 -7 530 -1T513 19L445 107Q415 77 389 56T336 21T284
1T226 -6ZM231 54Q274 54 313 77T407 156L236 379Q213 361 191 340T151 294T124 243T113 187Q113 127 147 91T231 54ZM196 587Q196 558 211 529T251 466Q304 506 324 535T345 588Q345 622 328 642T268 663Q238 663 217 643T196 587Z" />
<glyph unicode="&apos;" glyph-name="quotesingle" horiz-adv-x="179" d="M60 681Q60 698 68 708T89 719Q101 719 110 709T119 681V557Q119 541 110 531T89 520Q77 520 69 530T60 557V681Z" />
<glyph unicode="(" glyph-name="parenleft" horiz-adv-x="244" d="M181 -111Q158 -111 142 -78Q122 -39 104 5T72 99T50 206T41 330Q41 396 49 453T72 560T104 654T142 737Q158 770 181 770Q195 770 204 761T213 737Q213 732 210 723T198 698Q184 671 168 633T138
547T115 445T106 330Q106 270 115 215T138 113T168 27T198 -39Q206 -54 209 -63T213 -78Q213 -92 204 -101T181 -111Z" />
<glyph unicode=")" glyph-name="parenright" horiz-adv-x="244" d="M62 -111Q48 -111 39 -102T30 -78Q30 -73 33 -64T45 -39Q59 -12 75 26T105 112T128 215T137 330Q137 390 128 445T105 547T75 632T45 698Q37 713 34 722T30 737Q30 751 39 760T62 770Q85 770
101 737Q120 698 138 655T171 561T193 453T202 330Q202 264 194 207T171 99T139 5T101 -78Q85 -111 62 -111Z" />
<glyph unicode="*" glyph-name="asterisk" horiz-adv-x="388" d="M166 541Q139 553 117 562T78 580T52 598T42 620Q42 639 71 639Q76 639 81 638T98 629T129 607T181 565Q175 605 172 627T168 662T166 678T166 686Q166 700 173 709T194 718Q208 718 215 709T222
686Q222 683 222 679T221 662T216 628T207 565Q242 592 263 606T295 628T310 637T317 639Q346 639 346 613Q346 607 343 602T328 590T291 571T222 541Q260 525 284 515T322 496T341 482T346 469Q346 443 317 443Q315 443 311 444T295 453T263 476T207 517Q213 478
216 455T220 420T222 404T222 396Q222 382 215 373T194 364Q180 364 173 373T166 396Q166 399 166 403T167 420T172 455T181 517Q152 496 134 482T104 459T85 447T71 443Q42 443 42 469Q42 475 46 481T64 495T101 514T166 541Z" />
<glyph unicode="+" glyph-name="plus" horiz-adv-x="600" d="M270 245H84Q72 245 62 253T52 274Q52 286 62 295T84 304H270V504Q270 516 279 526T300 536Q312 536 321 526T330 504V304H517Q529 304 539 295T549 274Q549 262 539 254T517 245H330V44Q330 32 321
22T300 12Q288 12 279 22T270 44V245Z" />
<glyph unicode="," glyph-name="comma" horiz-adv-x="236" d="M93 53Q100 66 108 72T130 79Q144 79 154 70T164 45Q164 34 161 26T153 10L101 -93Q94 -105 87 -113T65 -121Q50 -121 40 -111T29 -86Q29 -74 33 -66L93 53Z" />
<glyph unicode="-" glyph-name="hyphen" horiz-adv-x="345" d="M270 295Q282 295 292 287T302 266Q302 254 292 245T270 236H74Q62 236 52 245T42 266Q42 278 52 286T74 295H270Z" />
<glyph unicode="." glyph-name="period" horiz-adv-x="236" d="M70 43Q70 63 84 77T118 92Q138 92 152 78T167 43Q167 23 153 9T118 -5Q98 -5 84 9T70 43Z" />
<glyph unicode="/" glyph-name="slash" horiz-adv-x="387" d="M280 744Q283 754 291 762T311 770Q324 770 334 759T345 731Q345 727 344 722T341 715L107 -56Q105 -65 97 -73T77 -81Q63 -81 53 -71T42 -46Q42 -41 45 -32L280 744Z" />
<glyph unicode="0" glyph-name="zero" horiz-adv-x="491" d="M40 356Q40 461 56 530T100 641T165 700T244 717Q286 717 323 700T389 642T433 531T450 356Q450 251 434 182T390 71T325 12T244 -5Q202 -5 165 12T101 70T57 181T40 356ZM110 356Q110 289 116 234T139
138T180 75T244 52Q282 52 308 74T350 137T374 233T381 356Q381 423 374 478T351 574T308 637T244 660Q206 660 181 638T139 575T117 479T110 356Z" />
<glyph unicode="1" glyph-name="one" horiz-adv-x="439" d="M225 58V628L89 523Q86 521 81 518T67 515Q53 515 44 523T35 545Q35 548 36 556T50 574L238 712Q247 719 255 719Q269 719 278 708T288 683V58H392Q404 58 413 50T423 29Q423 17 414 9T392 0H94Q82 0
72 8T62 29Q62 41 72 49T93 58H225Z" />
<glyph unicode="2" glyph-name="two" horiz-adv-x="447" d="M77 0Q65 0 57 8T48 29Q48 91 70 140T124 229T195 305T265 376T320 450T342 534Q342 591 310 625T223 659Q177 659 149 640T103 589Q94 573 86 567T67 560Q53 560 45 568T36 591Q36 600 44 613T63 641Q87
674 126 695T226 717Q268 717 301 703T358 665T393 606T406 533Q406 482 385 438T331 355T260 281T190 210T136 137T114 58H381Q392 58 402 50T412 29Q412 17 402 9T381 0H77Z" />
<glyph unicode="3" glyph-name="three" horiz-adv-x="459" d="M205 -5Q163 -5 131 4T78 25T46 52T35 78Q35 91 44 98T66 106Q77 106 86 98T108 80T144 62T205 53Q272 53 311 90T350 192Q350 236 334 265T293 313T236 338T173 346Q162 346 153 355T143 375Q143
386 152 395T173 404Q195 404 220 414T266 442T302 487T316 547Q316 566 312 586T296 622T264 648T213 659Q184 659 164 652T130 637T105 621T84 614Q62 614 56 623T49 644Q49 651 53 661T76 682Q103 698 134 707T213 717Q258 717 290 704T344 668T375 614T386
549Q386 490 355 447T279 383Q418 336 418 190Q418 144 402 108T357 46T289 8T205 -5Z" />
<glyph unicode="4" glyph-name="four" horiz-adv-x="493" d="M467 224Q467 212 457 204T435 195H390V27Q390 15 381 5T358 -6Q345 -6 336 4T327 27V195H57Q45 195 38 202T30 223Q30 231 33 237L194 693Q198 701 204 710T225 719Q239 719 247 708T256 683Q256 674
255 670L102 253H327V509Q327 523 336 533T358 544Q372 544 381 534T390 509V253H435Q447 253 457 245T467 224Z" />
<glyph unicode="5" glyph-name="five" horiz-adv-x="486" d="M208 -5Q175 -5 146 4T96 25T62 52T49 78Q49 91 58 98T80 106Q91 106 101 98T127 79T164 61T222 52Q257 52 282 66T323 106T348 165T356 237Q356 310 323 353T221 397Q202 397 185 393T154 383T128
373T106 368Q92 368 84 377T75 400V404L108 687Q110 698 118 705T138 712H381Q392 712 402 704T412 683Q412 671 403 663T381 654H163L138 434Q156 443 181 449T233 456Q275 456 310 441T370 397T410 331T425 247Q425 190 411 144T370 64T302 13T208 -5Z" />
<glyph unicode="6" glyph-name="six" horiz-adv-x="488" d="M247 -6Q188 -6 149 18T85 78T51 155T40 230Q40 265 48 316T82 430T153 563T277 708Q284 717 300 717Q314 717 322 709T331 687Q331 682 329 674T318 659Q275 621 232 567T148 425Q171 441 200 448T256
455Q344 455 395 396T447 230Q447 190 436 148T400 72T337 16T247 -6ZM241 51Q269 51 293 61T337 94T367 148T378 224Q378 264 368 296T340 351T297 385T243 397Q110 397 110 224Q110 192 117 162T141 106T182 66T241 51Z" />
<glyph unicode="7" glyph-name="seven" horiz-adv-x="431" d="M149 -6Q136 -6 127 5T117 31Q117 36 118 39T119 43L341 654H51Q37 654 27 662T16 682Q16 695 26 703T48 712H378Q392 712 401 705T410 683Q410 675 409 670T404 653L178 18Q173 7 166 1T149 -6Z" />
<glyph unicode="8" glyph-name="eight" horiz-adv-x="486" d="M243 -5Q194 -5 156 13T93 60T54 128T40 209Q40 243 49 274T73 329T110 372T157 398Q115 417 92 458T68 556Q68 586 81 615T117 666T172 703T243 717Q281 717 313 703T368 667T405 615T418 556Q418
499 393 458T329 398Q383 380 414 329T446 209Q446 167 433 129T394 61T330 13T243 -5ZM243 428Q272 428 293 437T328 463T348 500T355 547Q355 571 347 591T323 627T288 650T243 659Q192 659 162 627T131 549Q131 498 158 463T243 428ZM243 52Q276 52 301 67T343
105T368 157T377 214Q377 244 369 271T343 320T301 355T243 368Q210 368 186 355T144 321T119 272T110 214Q110 186 118 158T143 106T185 67T243 52Z" />
<glyph unicode="9" glyph-name="nine" horiz-adv-x="488" d="M241 717Q299 717 338 693T402 634T436 557T447 482Q447 446 439 395T405 281T334 148T211 4Q203 -6 188 -6Q174 -6 166 2T157 24Q157 30 159 38T169 52Q213 90 256 144T339 286Q316 271 288 264T231
256Q144 256 92 315T40 481Q40 521 51 563T88 639T150 695T241 717ZM247 660Q219 660 194 650T150 618T120 564T109 488Q109 406 147 361T245 315Q310 315 344 357T378 488Q378 519 371 550T347 605T306 645T247 660Z" />
<glyph unicode=":" glyph-name="colon" horiz-adv-x="236" d="M70 370Q70 390 84 404T118 418Q138 418 152 404T167 370Q167 350 153 336T118 321Q98 321 84 335T70 370ZM70 43Q70 63 84 77T118 92Q138 92 152 78T167 43Q167 23 153 9T118 -5Q98 -5 84 9T70 43Z" />
<glyph unicode=";" glyph-name="semicolon" horiz-adv-x="236" d="M70 370Q70 390 84 404T118 418Q138 418 152 404T167 370Q167 350 153 336T118 321Q98 321 84 335T70 370ZM93 53Q100 66 108 72T130 79Q144 79 154 70T164 45Q164 34 161 26T153 10L101 -93Q94
-105 87 -113T65 -121Q50 -121 40 -111T29 -86Q29 -74 33 -66L93 53Z" />
<glyph unicode="&lt;" glyph-name="less" horiz-adv-x="600" d="M39 251Q39 258 44 266T66 284L486 502Q491 504 495 505T505 507Q519 507 527 498T536 478Q536 463 514 452L131 251L509 51Q524 43 530 37T536 21Q536 10 527 1T505 -8Q498 -8 493 -5T478 3L66
217Q49 226 44 235T39 251Z" />
<glyph unicode="=" glyph-name="equal" horiz-adv-x="600" d="M517 381Q529 381 539 373T549 352Q549 339 539 331T517 322H84Q72 322 62 330T52 352Q52 364 62 372T84 381H517ZM517 180Q529 180 539 172T549 151Q549 138 539 130T517 121H84Q72 121 62 129T52
151Q52 163 62 171T84 180H517Z" />
<glyph unicode="&gt;" glyph-name="greater" horiz-adv-x="600" d="M561 251Q561 244 556 235T534 217L122 3Q113 -2 108 -5T95 -8Q83 -8 74 1T64 21Q64 30 70 36T91 51L469 251L86 452Q64 464 64 478Q64 489 72 498T95 507Q104 507 114 502L534 284Q551 275 556
267T561 251Z" />
<glyph unicode="?" glyph-name="question" horiz-adv-x="413" d="M151 376Q151 387 155 397T183 412Q252 428 284 458T317 536Q317 591 285 625T199 659Q154 659 126 639T78 589Q68 573 59 567T37 560Q23 560 17 568T11 584Q11 598 18 612T36 641Q60 674 101 695T201
717Q243 717 276 703T333 664T368 606T381 535Q381 496 368 467T331 416T278 380T215 357V232Q215 218 206 209T183 200Q170 200 161 209T151 232V376ZM135 43Q135 63 149 77T183 92Q203 92 217 78T232 43Q232 23 218 9T183 -5Q163 -5 149 9T135 43Z" />
<glyph unicode="@" glyph-name="at" horiz-adv-x="881" d="M303 189Q303 134 326 106T391 78Q427 78 458 105T512 172T548 254T561 328Q561 363 540 387T473 411Q437 411 406 389T352 334T316 262T303 189ZM444 -168Q359 -168 285 -135T155 -45T67 87T34 248Q34
332 66 406T154 535T285 623T445 656Q534 656 608 628T735 548T817 426T847 270Q847 217 826 170T769 87T688 31T597 10Q559 10 535 31T511 91Q501 77 488 64T458 39T420 21T373 14Q337 14 310 27T264 63T237 117T227 185Q227 237 244 288T293 381T370 449T469
475Q508 475 541 455T593 392L608 428Q613 442 622 448T641 455Q656 455 666 444T676 419Q676 415 675 409T670 391L585 163Q580 149 577 136T574 110Q574 95 581 82T606 68Q634 68 665 84T723 129T767 194T784 272Q784 348 758 407T687 506T579 568T445 589Q373
589 311 562T201 488T127 379T100 244Q100 173 127 111T200 1T309 -73T442 -101Q513 -101 563 -89T647 -61T702 -26T738 7Q746 15 752 23T773 31Q786 31 794 23T803 1Q803 -4 802 -9T793 -22Q769 -46 737 -72T662 -119T565 -154T444 -168Z" />
<glyph unicode="A" glyph-name="A" horiz-adv-x="555" d="M423 183H131L77 17Q72 6 64 0T47 -6Q34 -6 25 4T16 29Q16 34 18 40L213 629Q220 650 225 666T238 694T254 712T278 718Q292 718 301 712T318 694T330 666T343 630L536 43Q537 41 538 38T539 29Q539 16
531 5T508 -6Q498 -6 490 0T478 17L423 183ZM150 240H405L277 629L150 240Z" />
<glyph unicode="B" glyph-name="B" horiz-adv-x="512" d="M77 680Q77 692 87 702T109 712H239Q303 712 342 695T404 652T433 595T440 534Q440 470 407 434T311 385Q391 374 430 328T470 204Q470 163 459 127T422 62T355 17T256 0H109Q97 0 87 10T77 31V680ZM140
404H224Q253 404 280 413T329 440T364 481T377 533Q377 558 370 580T346 618T302 644T235 654H140V404ZM140 58H249Q328 58 367 95T407 205Q407 270 367 311T248 353H140V58Z" />
<glyph unicode="C" glyph-name="C" horiz-adv-x="531" d="M315 -5Q240 -5 189 20T106 92T61 205T47 356Q47 437 62 503T110 617T198 691T331 717Q374 717 409 706T469 680T507 649T521 621Q521 608 513 601T492 594Q480 594 469 604T439 626T395 649T329 659Q259
659 217 631T152 559T122 461T115 356Q115 305 122 252T150 154T212 81T318 53Q362 53 391 61T438 80T469 98T491 107Q504 107 512 101T521 80Q521 67 505 52T460 25T395 4T315 -5Z" />
<glyph unicode="D" glyph-name="D" horiz-adv-x="605" d="M77 680Q77 692 87 702T109 712H283Q372 712 426 678T509 592T548 475T558 350Q558 267 542 202T491 92T403 24T276 0H109Q97 0 87 10T77 31V680ZM140 58H275Q341 58 383 82T449 147T481 244T490 364Q490
416 482 467T450 560T386 628T278 654H140V58Z" />
<glyph unicode="E" glyph-name="E" horiz-adv-x="470" d="M78 680Q78 692 87 702T109 712H423Q435 712 445 704T455 683Q455 671 445 663T423 654H142V383H350Q362 383 372 375T382 355Q382 343 372 335T350 326H141V58H423Q435 58 445 49T455 29Q455 17 445 9T423
0H109Q97 0 88 10T78 31V680Z" />
<glyph unicode="F" glyph-name="F" horiz-adv-x="440" d="M78 680Q78 692 87 702T109 712H423Q435 712 445 704T455 683Q455 671 445 663T423 654H141V383H350Q362 383 372 375T382 355Q382 343 372 335T350 326H141V29Q141 15 132 5T109 -6Q96 -6 87 4T78 29V680Z" />
<glyph unicode="G" glyph-name="G" horiz-adv-x="594" d="M500 351Q536 351 547 335T558 300V250Q558 129 495 62T314 -5Q239 -5 188 20T105 92T61 205T47 356Q47 437 62 503T110 617T198 691T330 717Q372 717 406 706T466 680T505 649T519 621Q519 608 511 601T490
594Q478 594 466 604T435 626T392 649T328 659Q258 659 216 631T152 559T122 461T115 356Q115 305 122 252T150 154T212 81T318 53Q365 53 398 67T453 106T485 166T495 244V293H384Q369 293 359 302T348 322Q348 333 358 342T384 351H500Z" />
<glyph unicode="H" glyph-name="H" horiz-adv-x="621" d="M140 28Q140 15 131 5T109 -6Q95 -6 86 4T77 28V684Q77 697 86 708T109 719Q122 719 131 708T140 684V394H481V684Q481 697 490 708T513 719Q526 719 535 708T544 684V28Q544 15 535 5T513 -6Q499 -6 490
4T481 28V336H140V28Z" />
<glyph unicode="I" glyph-name="I" horiz-adv-x="325" d="M69 651Q58 651 48 660T38 682Q38 694 48 703T70 712H255Q267 712 277 703T287 682Q287 669 277 660T255 651H194V61H255Q267 61 277 52T287 30Q287 18 277 9T255 0H70Q58 0 48 9T38 30Q38 43 48 52T70
61H131V651H69Z" />
<glyph unicode="J" glyph-name="J" horiz-adv-x="386" d="M246 684Q246 697 255 708T277 719Q291 719 300 708T309 684V158Q309 -5 155 -5Q124 -5 98 4T54 27T25 55T15 81Q15 93 23 100T45 107Q56 107 65 99T87 80T115 61T157 52Q184 52 201 60T228 82T242 115T246
156V684Z" />
<glyph unicode="K" glyph-name="K" horiz-adv-x="506" d="M141 390L418 709Q422 713 428 716T439 719Q452 719 461 708T471 682Q471 670 462 661L201 362L495 45Q500 42 500 29Q500 15 492 5T470 -6Q466 -6 462 -4T454 1L141 331V29Q141 15 132 5T109 -6Q96 -6
87 4T78 29V684Q78 697 87 708T109 719Q123 719 132 708T141 684V390Z" />
<glyph unicode="L" glyph-name="L" horiz-adv-x="427" d="M78 684Q78 697 87 708T109 719Q123 719 132 708T141 684V58H391Q403 58 412 49T422 29Q422 17 413 9T391 0H109Q97 0 88 10T78 31V684Z" />
<glyph unicode="M" glyph-name="M" horiz-adv-x="748" d="M624 641Q645 490 660 387T684 217T699 114T707 60T710 38T711 31Q711 16 703 5T680 -6Q669 -6 660 4T648 25L560 650L433 75Q425 34 410 17T374 0Q351 0 338 17T315 76L188 647L100 25Q98 11 89 3T68
-6Q54 -6 46 5T37 30Q37 33 38 38L125 641Q131 686 146 702T188 719Q214 719 228 702T252 641L374 76L497 641Q506 686 521 702T561 719Q587 719 602 703T624 641Z" />
<glyph unicode="N" glyph-name="N" horiz-adv-x="621" d="M77 683Q77 697 86 708T110 719Q118 719 126 714T139 700L481 135V684Q481 697 490 708T513 719Q526 719 535 708T544 684V28Q544 15 535 5T511 -6Q503 -6 495 -1T482 13L140 578V29Q140 15 131 5T109
-6Q95 -6 86 4T77 29V683Z" />
<glyph unicode="O" glyph-name="O" horiz-adv-x="626" d="M313 -5Q238 -5 187 20T105 92T61 205T47 356Q47 434 60 500T105 614T187 689T313 717Q388 717 439 690T521 614T566 500T580 356Q580 272 567 206T522 92T439 20T313 -5ZM313 53Q377 53 416 81T476 153T504
251T511 356Q511 407 504 460T476 558T416 631T313 659Q249 659 210 631T150 559T122 461T115 356Q115 305 122 252T150 154T210 81T313 53Z" />
<glyph unicode="P" glyph-name="P" horiz-adv-x="494" d="M78 678Q78 692 87 702T109 712H266Q328 712 368 691T431 637T464 568T473 501Q473 457 461 417T421 345T351 295T246 276H141V29Q141 15 132 5T109 -6Q96 -6 87 4T78 29V678ZM141 334H256Q300 334 329
348T377 386T402 437T410 494Q410 521 403 549T378 601T331 639T256 654H141V334Z" />
<glyph unicode="Q" glyph-name="Q" horiz-adv-x="626" d="M304 -5Q232 -5 183 20T104 92T61 205T47 356Q47 434 60 500T105 614T187 689T313 717Q388 717 439 691T521 616T566 502T580 356Q580 253 555 178T479 56L531 -47Q532 -50 533 -54T534 -63Q534 -74 526
-82T506 -90Q495 -90 489 -84T477 -69L430 22Q376 -5 304 -5ZM313 53Q367 53 403 74L353 173Q349 179 347 185T344 200Q344 212 351 220T370 228Q382 228 388 224T400 208L450 113Q469 136 480 165T499 226T508 291T511 356Q511 407 504 460T476 558T416 631T313
659Q249 659 210 631T150 559T122 461T115 356Q115 305 122 252T150 154T210 81T313 53Z" />
<glyph unicode="R" glyph-name="R" horiz-adv-x="524" d="M78 677Q78 691 87 701T111 712H266Q328 712 368 694T431 647T464 585T473 520Q473 448 439 394T324 321L504 47Q507 42 507 31Q507 16 497 5T472 -6Q467 -6 459 -2T447 8L255 313H246H141V29Q141 15 132
5T109 -6Q96 -6 87 4T78 29V677ZM141 371H256Q300 371 329 383T377 414T402 459T410 513Q410 541 403 566T378 611T331 642T256 654H141V371Z" />
<glyph unicode="S" glyph-name="S" horiz-adv-x="454" d="M209 -5Q168 -5 135 4T79 25T42 52T29 78Q29 91 37 98T60 106Q71 106 81 98T108 80T148 62T210 53Q249 53 276 64T322 93T348 136T357 186Q357 214 350 236T327 278T283 314T214 349Q184 362 153 378T97
418T56 475T40 554Q40 593 55 623T97 674T161 706T243 717Q273 717 301 711T351 695T386 673T400 647Q400 619 369 619Q358 619 349 625T325 638T291 652T238 659Q178 659 144 630T109 553Q109 522 119 500T148 460T189 431T238 407Q276 390 310 372T369 330T410
273T425 193Q425 153 412 117T372 54T305 11T209 -5Z" />
<glyph unicode="T" glyph-name="T" horiz-adv-x="440" d="M44 654Q32 654 22 662T12 683Q12 695 22 703T44 712H396Q408 712 418 704T428 683Q428 671 418 663T396 654H252V28Q252 15 243 5T220 -6Q207 -6 198 4T189 28V654H44Z" />
<glyph unicode="U" glyph-name="U" horiz-adv-x="600" d="M66 684Q66 697 75 708T98 719Q112 719 120 708T129 684V247Q129 146 176 99T300 51Q338 51 369 62T423 98T458 159T470 247V684Q470 697 479 708T502 719Q515 719 524 708T533 684V237Q533 176 516 131T469
55T395 9T300 -6Q248 -6 205 9T131 54T83 130T66 237V684Z" />
<glyph unicode="V" glyph-name="V" horiz-adv-x="537" d="M268 76L469 696Q480 719 499 719Q513 719 521 708T529 682Q529 675 528 673L329 82Q322 61 317 45T305 18T291 0T269 -6Q255 -6 247 0T232 18T220 46T208 82L10 669Q9 671 8 674T7 682Q7 696 15 707T38
719Q48 719 56 713T68 696L268 76Z" />
<glyph unicode="W" glyph-name="W" horiz-adv-x="735" d="M29 612Q25 635 23 647T19 666T17 676T16 682Q16 696 24 707T47 719Q58 719 67 709T79 688L204 83L312 609Q320 652 333 668T367 684Q389 684 401 668T423 608L531 83L656 688Q658 701 667 710T688 719Q701
719 710 708T719 683Q719 680 718 676L592 71Q583 27 570 11T533 -6Q504 -6 490 11T465 71L366 573L269 71Q258 27 245 11T202 -6Q179 -6 165 10T141 71L29 612Z" />
<glyph unicode="X" glyph-name="X" horiz-adv-x="496" d="M248 426L414 692Q430 719 445 719Q458 719 467 708T477 682Q477 671 461 648L286 366L477 62Q490 43 490 31Q490 16 481 5T458 -6Q447 -6 442 0T430 18L245 312L67 18Q59 6 54 0T38 -6Q25 -6 16 5T6 31Q6
38 9 45T18 62L207 372L33 649Q19 671 19 682Q19 696 28 707T50 719Q65 719 82 692L248 426Z" />
<glyph unicode="Y" glyph-name="Y" horiz-adv-x="475" d="M206 285L18 648Q15 656 11 664T7 682Q7 696 16 707T39 719Q54 719 67 697L237 348L408 697Q421 719 437 719Q450 719 459 708T468 682Q468 673 465 665T458 648L269 285V40Q269 -6 238 -6Q206 -6 206 40V285Z" />
<glyph unicode="Z" glyph-name="Z" horiz-adv-x="465" d="M50 0Q38 0 30 7T21 27Q21 38 24 44T31 57L356 654H66Q55 654 45 662T35 683Q35 695 45 703T66 712H404Q415 712 424 705T433 685Q433 677 430 671T424 658L97 58H413Q424 58 434 49T444 29Q444 17 434
9T413 0H50Z" />
<glyph unicode="[" glyph-name="bracketleft" horiz-adv-x="256" d="M198 -40Q210 -40 220 -49T230 -70Q230 -82 220 -91T198 -100H122Q110 -100 100 -90T90 -68V728Q90 740 100 750T122 760H198Q210 760 220 751T230 730Q230 718 220 709T198 700H155V-40H198Z" />
<glyph unicode="\" glyph-name="backslash" horiz-adv-x="387" d="M342 -32Q345 -41 345 -46Q345 -60 335 -70T310 -81Q299 -81 291 -73T280 -56L46 715Q45 717 44 722T42 731Q42 748 52 759T76 770Q87 770 95 762T107 744L342 -32Z" />
<glyph unicode="]" glyph-name="bracketright" horiz-adv-x="256" d="M100 -40V700H58Q46 700 36 709T26 730Q26 742 36 751T58 760H134Q146 760 156 750T166 728V-68Q166 -80 156 -90T134 -100H58Q46 -100 36 -91T26 -70Q26 -58 36 -49T58 -40H100Z" />
<glyph unicode="^" glyph-name="asciicircum" horiz-adv-x="600" d="M271 698Q278 712 285 715T300 718Q308 718 315 715T329 698L545 308Q550 300 552 294T554 282Q554 267 543 262T523 257Q509 258 501 266T485 291L300 626L116 291Q107 275 99 267T77 257Q68
257 57 262T46 282Q46 287 48 293T55 308L271 698Z" />
<glyph unicode="_" glyph-name="underscore" horiz-adv-x="500" d="M0 -125Q-12 -125 -20 -119T-29 -100Q-29 -88 -21 -82T0 -75H500Q512 -75 520 -81T529 -100Q529 -112 521 -118T500 -125H0V-125Z" />
<glyph unicode="`" glyph-name="grave" horiz-adv-x="202" d="M187 662Q201 657 206 648T211 631Q211 619 203 611T182 602Q175 602 169 605L18 663Q7 667 3 674T-2 690Q-2 703 7 711T30 720Q32 720 35 720T40 719L187 662Z" />
<glyph unicode="a" glyph-name="a" horiz-adv-x="480" d="M34 155Q34 196 52 225T99 272T163 298T233 307Q276 307 307 302T363 291V316Q363 403 330 440T234 478Q199 478 178 472T142 459T119 446T98 440Q70 440 70 468Q70 494 113 515T234 536Q288 536 324 522T382
478T413 404T423 299V29Q423 15 414 5T392 -6Q378 -6 369 4T359 29V82Q333 34 296 14T201 -6Q173 -6 144 1T90 27T50 76T34 155ZM104 153Q104 100 132 77T205 54Q237 54 265 67T315 103T348 159T360 231Q338 241 309 245T244 249Q181 249 143 223T104 153Z" />
<glyph unicode="b" glyph-name="b" horiz-adv-x="537" d="M499 265Q499 206 487 156T447 70T378 14T276 -6Q231 -6 197 12T139 67V29Q139 15 130 5T106 -6Q92 -6 83 4T74 29V735Q74 749 83 759T106 770Q120 770 129 760T138 735V432Q155 480 189 508T286 536Q343
536 383 514T449 454T487 367T499 265ZM428 265Q428 302 421 340T397 408T353 458T283 478Q241 478 214 459T169 409T145 340T138 265Q138 228 145 190T169 122T213 72T283 52Q325 52 353 71T397 121T421 190T428 265Z" />
<glyph unicode="c" glyph-name="c" horiz-adv-x="422" d="M38 265Q38 318 50 367T89 453T159 513T264 536Q327 536 364 519T402 482Q402 466 394 458T372 450Q365 450 359 454T341 464T312 473T264 478Q219 478 189 459T141 409T116 340T109 265Q109 228 116 190T140
122T184 72T254 52Q282 52 300 56T330 66T352 76T372 81Q386 81 394 74T402 53Q402 48 401 43T395 32Q381 17 342 6T255 -6Q197 -6 156 14T89 70T50 156T38 265Z" />
<glyph unicode="d" glyph-name="d" horiz-adv-x="537" d="M38 265Q38 318 50 367T88 453T156 513T257 536Q355 536 399 461V734Q399 748 408 758T431 769Q445 769 454 759T463 734V29Q463 15 454 5T431 -6Q418 -6 408 4T398 29V100Q381 51 347 23T251 -6Q195 -6
155 14T89 70T51 156T38 265ZM109 265Q109 228 116 190T139 122T183 72T252 52Q292 52 320 71T365 121T391 190T399 265Q399 302 392 340T368 408T324 458T254 478Q212 478 185 459T140 409T116 340T109 265Z" />
<glyph unicode="e" glyph-name="e" horiz-adv-x="489" d="M38 265Q38 318 50 367T87 453T153 513T252 536Q309 536 348 514T410 456T444 373T454 276Q454 257 444 246T416 235H109Q113 196 122 163T150 105T195 67T261 53Q292 53 313 57T349 67T374 76T392 81Q423
81 423 53Q423 46 416 38T400 26Q377 15 344 5T254 -6Q197 -6 156 14T89 71T51 156T38 265ZM384 291Q383 326 376 359T353 419T312 461T248 477Q215 477 190 461T147 419T120 360T109 291H384Z" />
<glyph unicode="f" glyph-name="f" horiz-adv-x="240" d="M-1 507Q-1 518 8 525T27 533H79V604Q79 688 108 729T201 770Q234 770 243 760T252 742Q252 711 217 711Q173 711 158 683T142 604V533H199Q216 533 222 524T228 507Q228 500 222 491T199 481H142V40Q142
-6 111 -6Q79 -6 79 40V481H27Q17 481 8 489T-1 507Z" />
<glyph unicode="g" glyph-name="g" horiz-adv-x="521" d="M38 265Q38 318 50 367T88 453T155 513T254 536Q352 536 397 465V502Q397 516 406 526T430 537Q444 537 453 527T462 502V28Q462 -33 443 -74T393 -140T322 -176T238 -187Q207 -187 174 -181T114 -164T69
-139T51 -107Q51 -93 60 -85T87 -77Q98 -77 109 -85T137 -102T178 -120T238 -128Q274 -128 303 -120T354 -93T386 -44T398 31V79Q377 43 341 18T249 -7Q195 -7 155 13T89 69T51 155T38 265ZM109 265Q109 228 116 190T139 122T181 72T247 52Q289 52 318 71T365 121T391
190T399 265Q399 302 392 340T368 408T324 458T254 478Q212 478 185 459T140 409T116 340T109 265Z" />
<glyph unicode="h" glyph-name="h" horiz-adv-x="518" d="M74 735Q74 749 83 759T106 770Q120 770 129 760T138 735V448Q164 496 198 516T284 536Q317 536 347 524T399 489T434 430T447 346V29Q447 15 438 5T415 -6Q402 -6 393 4T383 29V352Q383 409 355 443T274
477Q213 477 176 432T138 300V29Q138 15 129 5T106 -6Q92 -6 83 4T74 29V735Z" />
<glyph unicode="i" glyph-name="i" horiz-adv-x="212" d="M61 668Q61 686 74 699T106 713Q125 713 138 700T151 668Q151 648 138 635T106 622Q87 622 74 635T61 668ZM74 502Q74 516 83 526T106 537Q120 537 129 527T138 502V29Q138 15 129 5T106 -6Q92 -6 83 4T74
29V502Z" />
<glyph unicode="j" glyph-name="j" horiz-adv-x="212" d="M74 493Q74 513 82 525T106 537Q122 537 130 525T138 493V-21Q138 -104 106 -145T-4 -187Q-24 -187 -29 -176T-35 -155Q-35 -128 1 -128Q25 -128 39 -121T61 -100T71 -66T74 -22V493ZM61 668Q61 686 74
699T106 713Q125 713 138 700T151 668Q151 648 138 635T106 622Q87 622 74 635T61 668Z" />
<glyph unicode="k" glyph-name="k" horiz-adv-x="437" d="M74 735Q74 749 83 759T106 770Q120 770 129 760T138 735V312L353 527Q356 530 362 533T374 537Q385 537 394 526T404 501Q404 492 402 488T394 478L199 283L413 51Q418 48 419 42T421 29Q421 17 412 6T391
-6Q380 -6 374 0T363 10L138 252V29Q138 15 129 5T106 -6Q92 -6 83 4T74 29V735Z" />
<glyph unicode="l" glyph-name="l" horiz-adv-x="212" d="M74 735Q74 749 83 759T106 770Q120 770 129 760T138 735V29Q138 15 129 5T106 -6Q92 -6 83 4T74 29V735Z" />
<glyph unicode="m" glyph-name="m" horiz-adv-x="831" d="M74 502Q74 516 83 526T106 537Q120 537 129 527T139 502V449Q165 497 199 516T285 536Q336 536 374 511T433 433Q458 485 495 510T598 536Q633 536 662 524T713 489T747 430T759 346V28Q759 15 750 5T728
-6Q714 -6 705 4T696 28V352Q696 419 665 448T585 477Q522 477 486 429T449 300V29Q449 15 440 5T417 -6Q403 -6 394 4T385 29V352Q385 410 357 443T275 477Q213 477 176 432T138 300V29Q138 15 129 5T106 -6Q92 -6 83 4T74 29V502Z" />
<glyph unicode="n" glyph-name="n" horiz-adv-x="518" d="M74 502Q74 516 83 526T106 537Q120 537 129 527T139 502V449Q165 497 199 516T284 536Q317 536 347 524T399 489T434 430T447 346V29Q447 15 438 5T415 -6Q402 -6 393 4T383 29V352Q383 409 355 443T274
477Q213 477 176 432T138 300V29Q138 15 129 5T106 -6Q92 -6 83 4T74 29V502Z" />
<glyph unicode="o" glyph-name="o" horiz-adv-x="508" d="M38 265Q38 318 50 367T87 453T154 513T254 536Q313 536 354 514T421 454T458 367T470 265Q470 206 458 156T419 70T352 14T254 -6Q197 -6 156 14T89 70T50 156T38 265ZM109 265Q109 228 116 190T140 122T184
72T254 52Q296 52 323 71T368 121T392 190T399 265Q399 302 392 340T368 408T324 458T254 478Q212 478 185 459T140 409T116 340T109 265Z" />
<glyph unicode="p" glyph-name="p" horiz-adv-x="537" d="M499 265Q499 206 487 156T447 70T378 14T276 -6Q231 -6 196 12T138 68V-152Q138 -166 129 -176T106 -187Q92 -187 83 -177T74 -152V502Q74 516 83 526T106 537Q120 537 129 527T139 502V433Q156 481 189
508T285 536Q341 536 381 514T448 454T486 367T499 265ZM428 265Q428 302 421 340T397 408T353 458T283 478Q241 478 214 459T169 409T145 340T138 265Q138 228 145 190T169 122T213 72T283 52Q325 52 353 71T397 121T421 190T428 265Z" />
<glyph unicode="q" glyph-name="q" horiz-adv-x="528" d="M38 265Q38 318 50 367T88 453T157 513T258 536Q352 536 397 465V491Q397 537 430 537Q462 537 462 491V-141Q462 -187 430 -187Q398 -187 398 -141V100Q381 51 346 23T250 -6Q195 -6 155 14T89 70T51
156T38 265ZM110 265Q110 228 117 190T140 122T182 72T248 52Q290 52 319 71T366 121T392 190T400 265Q400 302 393 340T369 408T325 458T255 478Q213 478 185 459T141 409T117 340T110 265Z" />
<glyph unicode="r" glyph-name="r" horiz-adv-x="307" d="M62 502Q62 516 71 526T94 537Q108 537 117 527T127 502V449Q154 499 183 517T257 536Q281 536 290 527T300 505Q300 491 290 482T258 473Q196 473 161 432T126 300V29Q126 15 117 5T94 -6Q80 -6 71 4T62 29V502Z" />
<glyph unicode="s" glyph-name="s" horiz-adv-x="433" d="M207 -6Q185 -6 162 -3T116 7T75 22T43 39Q37 44 34 51T30 65Q30 79 39 87T66 96Q77 96 89 90T118 75T159 60T220 53Q274 53 299 78T325 144Q325 162 318 176T294 202T252 227T192 255Q113 291 80 326T46
409Q46 475 92 505T213 536Q241 536 270 530T323 515T362 493T377 468Q377 457 371 449T345 440Q333 440 322 446T295 459T260 472T210 478Q193 478 176 474T145 462T123 439T114 405Q114 387 133 366T212 317Q255 297 289 280T345 244T380 201T392 146Q392 77
342 36T207 -6Z" />
<glyph unicode="t" glyph-name="t" horiz-adv-x="277" d="M0 507Q0 518 9 525T28 533H80V609Q80 655 112 655Q143 655 143 609V533H238Q255 533 261 524T268 507Q268 500 262 491T238 481H143V159Q143 136 146 117T157 84T181 61T223 53Q232 53 242 45T253 22Q253
11 244 3T202 -6Q136 -6 108 33T80 160V481H28Q18 481 9 488T0 507Z" />
<glyph unicode="u" glyph-name="u" horiz-adv-x="503" d="M65 502Q65 516 74 526T97 537Q110 537 119 527T128 502V190Q128 119 158 83T252 46Q316 46 345 82T374 190V502Q374 516 383 526T406 537Q420 537 429 527T438 502V173Q438 88 388 41T252 -6Q168 -6 117
41T65 173V502Z" />
<glyph unicode="v" glyph-name="v" horiz-adv-x="434" d="M24 488Q22 492 22 495T22 501Q22 515 31 526T54 537Q65 537 72 530T83 511L217 108L351 511Q354 522 360 529T380 537Q394 537 403 526T412 499Q412 497 412 494T410 488L248 20Q243 5 234 0T217 -6Q209
-6 200 -1T186 20L24 488Z" />
<glyph unicode="w" glyph-name="w" horiz-adv-x="666" d="M30 480Q27 490 27 493T27 501Q27 515 35 526T58 537Q72 537 79 528T90 504L192 122L302 511Q305 520 312 528T333 537Q347 537 354 528T364 511L474 125L577 509Q581 521 589 529T609 537Q621 537 630
526T640 501Q640 497 639 494T635 480L506 24Q500 3 489 -1T473 -6Q450 -6 442 22L333 402L224 26Q219 6 210 0T193 -6Q182 -6 174 1T161 20L30 480Z" />
<glyph unicode="x" glyph-name="x" horiz-adv-x="468" d="M394 -6Q386 -6 380 -1T370 9L229 218L98 9Q94 4 88 -1T74 -6Q60 -6 51 5T42 31Q42 33 43 37T46 46L195 269L52 485Q50 487 49 490T48 501Q48 515 57 526T79 537Q87 537 92 533T101 525L237 324L366 524Q371
529 377 533T389 537Q402 537 411 526T420 501Q420 494 419 490T417 484L272 272L421 47Q426 40 426 31Q426 17 417 6T394 -6Z" />
<glyph unicode="y" glyph-name="y" horiz-adv-x="434" d="M24 488Q22 492 22 495T22 501Q22 515 31 526T54 537Q65 537 72 530T83 511L217 108L351 511Q354 521 360 529T380 537Q394 537 403 526T412 499Q412 497 412 494T410 488L187 -163Q184 -171 178 -179T159
-187Q145 -187 136 -175T126 -152Q126 -139 132 -124L183 27L24 488Z" />
<glyph unicode="z" glyph-name="z" horiz-adv-x="431" d="M316 472H77Q65 472 55 481T45 502Q45 513 55 522T77 531H369Q381 531 390 524T400 502Q400 491 396 483L109 58H374Q386 58 396 50T406 29Q406 17 396 9T374 0H54Q42 0 33 7T24 28Q24 40 33 52L316 472Z" />
<glyph unicode="{" glyph-name="braceleft" horiz-adv-x="282" d="M194 -100Q152 -100 126 -76T99 6V163Q99 235 89 270T39 306Q31 306 23 313T15 331Q15 342 23 348T39 355Q79 355 89 390T99 498V658Q99 715 125 737T194 760H224Q236 760 246 751T256 730Q256
718 246 709T224 700H205Q181 700 173 681T165 634V482Q165 444 158 417T141 371T116 344T89 331V330Q102 327 115 318T140 290T158 245T165 179V25Q165 -2 172 -21T204 -40H224Q236 -40 246 -49T256 -70Q256 -82 246 -91T224 -100H194V-100Z" />
<glyph unicode="|" glyph-name="bar" horiz-adv-x="266" d="M103 738Q103 750 111 760T133 770Q145 770 154 760T163 739V-49Q163 -61 154 -71T133 -81Q120 -81 112 -71T103 -48V738Z" />
<glyph unicode="}" glyph-name="braceright" horiz-adv-x="282" d="M58 -100Q46 -100 36 -91T26 -70Q26 -58 36 -49T58 -40H77Q103 -40 110 -21T117 25V179Q117 217 124 244T142 290T166 317T193 330V331Q179 334 166 343T142 371T124 416T117 482V634Q117 661
109 680T76 700H58Q46 700 36 709T26 730Q26 742 36 751T58 760H88Q130 760 156 738T182 658V498Q182 426 192 391T243 355Q251 355 258 349T266 331Q266 320 259 313T243 306Q203 306 193 271T182 163V6Q182 -51 156 -75T88 -100H58Z" />
<glyph unicode="~" glyph-name="asciitilde" horiz-adv-x="600" d="M102 184Q91 184 83 190T74 214Q74 229 82 247T106 281T143 309T191 320Q224 320 250 309T301 283T349 257T400 245Q426 245 438 257T459 283T474 309T498 321Q509 321 517 315T526 292Q526 278
519 260T498 225T461 197T410 185Q371 185 345 197T296 223T251 249T201 261Q177 261 164 249T143 223T126 196T102 184Z" />
</font>
</defs>
</svg>
