<?xml version="1.0" standalone="no"?> <!DOCTYPE svg PUBLIC "-//W3C//DTD SVG 1.0//EN" "http://www.w3.org/TR/2001/REC-SVG-20010904/DTD/svg10.dtd" > <svg xmlns="http://www.w3.org/2000/svg" width="100%" height="100%">
<defs >
<font id="NetworkTTPictograms" horiz-adv-x="671" ><font-face
    font-family="Network TT Pictograms"
    units-per-em="1000"
    panose-1="2 0 0 0 0 0 0 0 0 0"
    ascent="800"
    descent="-200"
    alphabetic="0" />
<missing-glyph horiz-adv-x="500" d="M0 700H500V0H0V700ZM420 650H80L250 395L420 650ZM450 95V605L280 350L450 95ZM420 50L250 305L80 50H420ZM50 95L220 350L50 605V95Z" />
<glyph unicode=" " glyph-name="space" horiz-adv-x="251" />
<glyph unicode="!" glyph-name="exclam" horiz-adv-x="273" d="M88 677Q88 697 102 706T136 716Q156 716 170 707T185 677V251Q185 231 171 217T136 202Q116 202 102 216T88 251V677ZM74 53Q74 79 92 97T137 116Q162 116 180 98T199 53Q199 27 181 9T137 -9Q111
-9 93 9T74 53Z" />
<glyph unicode="&quot;" glyph-name="quotedbl" horiz-adv-x="0" />
<glyph unicode="#" glyph-name="numbersign" horiz-adv-x="555" d="M125 211H60Q43 211 35 221T27 247Q27 261 35 271T60 282H135L156 430H91Q74 430 66 440T58 465Q58 479 66 489T91 500H166L192 688Q197 717 229 717Q245 717 254 709T264 688Q264 681 263 673T260
657L238 500H358L384 688Q386 702 395 709T422 717Q436 717 446 710T456 688Q456 681 455 673T452 657L430 500H495Q512 500 520 490T528 465Q528 451 520 441T495 430H420L399 282H465Q482 282 490 272T498 247Q498 233 490 222T465 211H389L363 26Q361 10 353
3T326 -4Q311 -4 301 3T291 25Q291 30 292 39T295 56L317 211H197L171 26Q167 -4 134 -4Q119 -4 109 3T99 25Q99 30 100 38T103 56L125 211ZM207 282H327L348 430H228L207 282Z" />
<glyph unicode="$" glyph-name="dollar" horiz-adv-x="480" d="M25 78Q25 96 38 114T68 133Q78 133 91 125T122 107T165 89T224 79V328L210 334Q176 348 145 365T90 407T52 464T38 542Q38 581 52 612T90 666T149 702T224 720V761Q224 773 232 781T253 790Q264
790 272 782T280 762V719Q307 717 333 710T382 693T417 670T431 642Q431 634 428 625T419 607T405 594T387 588Q378 588 369 593T347 606T319 620T280 630V412Q319 394 351 375T407 331T442 274T455 198Q455 117 411 64T280 -4V-53Q280 -64 272 -72T253 -81Q241
-81 233 -73T224 -53V-9H222Q184 -9 149 -1T86 20T42 48T25 78ZM138 546Q138 505 160 482T224 438V631Q182 626 160 604T138 546ZM357 187Q357 225 339 251T280 300V85Q321 96 339 124T357 187Z" />
<glyph unicode="%" glyph-name="percent" horiz-adv-x="724" d="M188 382Q156 382 128 394T79 429T46 482T33 549Q33 587 45 618T79 673T129 708T188 721Q218 721 246 709T295 673T329 619T342 549Q342 513 330 483T296 430T247 395T188 382ZM536 -9Q504 -9 476
3T427 38T394 91T382 158Q382 196 394 227T428 282T478 317T536 330Q567 330 595 318T644 282T678 228T691 158Q691 122 679 92T645 39T596 4T536 -9ZM536 67Q554 67 567 75T590 96T603 125T607 157Q607 198 589 224T536 251Q503 251 484 225T465 157Q465 141 469
125T482 96T504 75T536 67ZM188 459Q206 459 219 467T241 488T254 517T258 549Q258 589 240 616T188 643Q154 643 135 616T116 549Q116 533 120 517T134 488T156 467T188 459ZM473 702Q480 716 489 722T517 728Q532 728 542 721T553 698Q553 690 548 680T538 661L249
11Q242 -3 233 -9T204 -16Q190 -16 179 -9T168 13Q168 21 173 32T183 52L473 702Z" />
<glyph unicode="&amp;" glyph-name="ampersand" horiz-adv-x="673" d="M238 -7Q191 -7 154 7T91 46T50 108T36 188Q36 226 48 258T82 319T131 372T191 418Q165 453 144 493T123 575Q123 645 167 682T285 719Q355 719 398 683T442 584Q442 559 436 537T414 494T375
450T317 403L457 226Q472 243 488 261T522 300Q532 312 540 319T555 331T569 337T586 339Q608 339 620 331T633 306Q633 295 621 280T587 241Q566 218 548 197T512 157L581 70Q588 62 596 50T604 30Q604 13 590 5T557 -4Q537 -4 527 1T504 24L449 93Q420 66 395
47T344 16T293 -1T238 -7ZM242 77Q279 77 313 95T395 160L244 351Q196 315 167 277T138 190Q138 139 167 108T242 77ZM215 574Q215 548 229 522T266 467Q314 500 332 526T350 576Q350 607 333 625T281 644Q253 644 234 626T215 574Z" />
<glyph unicode="&apos;" glyph-name="quotesingle" horiz-adv-x="208" d="M61 676Q61 697 73 706T104 716Q123 716 135 707T147 676V520Q147 499 135 490T104 480Q85 480 73 489T61 520V676Z" />
<glyph unicode="(" glyph-name="parenleft" horiz-adv-x="269" d="M193 -111Q177 -111 167 -102T146 -73Q126 -37 107 5T74 97T50 205T41 330Q41 397 50 454T73 562T107 654T146 732Q157 751 167 760T193 770Q211 770 226 756T241 725Q241 715 236 705T225 682Q211
658 195 622T166 541T143 442T133 330Q133 271 142 218T165 120T195 38T225 -23Q231 -35 236 -46T241 -66Q241 -83 226 -97T193 -111Z" />
<glyph unicode=")" glyph-name="parenright" horiz-adv-x="269" d="M81 -111Q63 -111 48 -97T33 -66Q33 -57 38 -46T50 -23Q63 1 79 37T109 119T132 218T142 330Q142 389 133 442T109 540T79 622T50 682Q43 694 38 704T33 725Q33 742 48 756T81 770Q97 770 107
761T128 732Q148 696 167 654T200 562T224 455T233 330Q233 263 224 205T201 97T167 5T128 -73Q117 -92 107 -101T81 -111Z" />
<glyph unicode="*" glyph-name="asterisk" horiz-adv-x="388" d="M143 536Q122 546 103 553T68 569T43 587T34 609Q34 623 44 633T72 643Q78 643 85 641T102 632T128 613T169 581Q165 609 163 626T160 654T158 670T157 681Q157 698 167 708T194 718Q211 718 221
708T231 681Q231 676 231 671T229 655T225 627T219 581Q245 600 261 612T288 631T305 640T316 643Q333 643 343 633T354 605Q354 596 349 590T332 576T299 559T245 536Q301 511 327 499T354 468Q354 451 344 441T316 430Q311 430 305 432T289 441T262 460T219 492Q223
464 225 447T228 419T230 402T231 392Q231 374 221 365T194 355Q177 355 167 364T157 392Q157 396 157 402T159 418T163 446T169 492Q147 475 132 464T106 445T87 434T72 430Q54 430 44 440T34 468Q34 486 59 498T143 536Z" />
<glyph unicode="+" glyph-name="plus" horiz-adv-x="600" d="M257 234H75Q58 234 49 247T40 277Q40 295 49 307T75 320H257V507Q257 525 270 534T300 543Q317 543 330 534T343 507V320H525Q543 320 552 308T561 277Q561 260 552 247T525 234H343V47Q343 30 330
21T300 11Q283 11 270 20T257 47V234Z" />
<glyph unicode="," glyph-name="comma" horiz-adv-x="251" d="M89 74Q97 88 107 97T134 107Q157 107 172 94T187 61Q187 50 183 40T173 19L110 -96Q101 -112 91 -123T65 -134Q41 -134 26 -119T10 -87Q10 -71 20 -54L89 74Z" />
<glyph unicode="-" glyph-name="hyphen" horiz-adv-x="374" d="M301 313Q319 313 328 301T337 271Q337 253 328 241T301 228H73Q56 228 47 240T37 271Q37 288 46 300T73 313H301Z" />
<glyph unicode="." glyph-name="period" horiz-adv-x="251" d="M63 53Q63 79 81 97T126 116Q151 116 169 98T188 53Q188 27 170 9T126 -9Q100 -9 82 9T63 53Z" />
<glyph unicode="/" glyph-name="slash" horiz-adv-x="395" d="M269 741Q274 755 284 762T315 770Q334 770 344 761T354 734Q354 727 352 717T348 702L127 -52Q122 -66 112 -73T82 -81Q62 -81 52 -72T41 -47Q41 -40 42 -32T46 -17L269 741Z" />
<glyph unicode="0" glyph-name="zero" horiz-adv-x="562" d="M51 356Q51 540 111 630T280 721Q389 721 449 631T510 356Q510 171 450 81T280 -9Q171 -9 111 81T51 356ZM156 356Q156 301 161 252T180 166T218 106T280 84Q318 84 342 106T380 165T399 252T405 356Q405
411 400 460T380 546T342 606T280 628Q242 628 218 606T180 547T161 460T156 356Z" />
<glyph unicode="1" glyph-name="one" horiz-adv-x="474" d="M221 89V583L118 506Q110 501 102 497T83 492Q74 492 66 497T50 509T39 526T35 544Q35 555 40 563T58 581L237 708Q244 712 254 714T274 716Q293 716 306 707T320 680V89H425Q444 89 453 76T462 45Q462
26 453 13T425 0H82Q64 0 55 13T46 45Q46 63 55 76T81 89H221Z" />
<glyph unicode="2" glyph-name="two" horiz-adv-x="483" d="M93 0Q75 0 62 13T48 44Q48 103 69 150T123 237T193 311T263 378T317 447T339 523Q339 571 312 600T237 630Q197 630 172 614T126 565Q117 551 108 544T86 537Q68 537 52 552T35 588Q35 600 44 614T66
645Q92 678 134 699T240 721Q283 721 319 707T381 666T421 604T436 525Q436 474 416 432T364 352T297 283T229 219T178 157T157 91H403Q424 91 433 77T443 46Q443 28 434 14T403 0H93Z" />
<glyph unicode="3" glyph-name="three" horiz-adv-x="513" d="M233 -9Q194 -9 158 -1T95 20T50 48T33 78Q33 96 46 114T76 133Q87 133 100 125T131 108T173 90T233 82Q290 82 323 114T356 203Q356 239 343 263T309 301T261 322T205 329Q182 329 173 343T163 375Q163
395 172 408T205 421Q226 421 248 429T288 452T317 487T328 534Q328 552 323 569T307 599T278 621T233 630Q206 630 186 624T150 609T122 594T99 587Q87 587 79 592T65 606T56 623T53 640Q53 649 59 660T81 680Q110 698 148 709T235 721Q280 721 316 708T378 671T416
615T430 545Q430 484 399 444T323 385Q390 365 426 319T463 197Q463 151 446 113T399 48T327 6T233 -9Z" />
<glyph unicode="4" glyph-name="four" horiz-adv-x="537" d="M515 223Q515 205 506 192T478 179H429V40Q429 16 415 6T380 -4Q359 -4 345 6T331 40V179H83Q65 179 49 195T33 227Q33 232 34 238T37 249L196 689Q206 716 243 716Q263 716 278 707T294 680Q294 669
287 653L146 268H331V481Q331 501 345 511T380 521Q400 521 414 511T429 481V268H478Q497 268 506 255T515 223Z" />
<glyph unicode="5" glyph-name="five" horiz-adv-x="518" d="M227 -9Q195 -9 164 -1T107 20T66 48T50 78Q50 96 63 114T93 133Q104 133 115 126T143 109T180 92T234 84Q294 84 323 126T353 238Q353 298 324 335T235 372Q216 372 201 368T172 359T147 349T125 345Q116
345 107 349T91 360T79 375T74 392V404L106 672Q108 692 117 702T149 712H405Q426 712 435 699T445 666Q445 647 435 634T405 621H187L168 438Q185 448 212 454T267 461Q310 461 346 444T407 398T446 328T460 242Q460 185 444 139T398 60T324 9T227 -9Z" />
<glyph unicode="6" glyph-name="six" horiz-adv-x="526" d="M263 -9Q204 -9 163 12T95 68T56 145T43 230Q43 276 55 332T96 449T171 576T285 706Q298 719 316 719Q325 719 334 715T352 703T365 687T370 668Q370 653 356 639Q318 605 274 557T189 434Q210 448 235
454T284 461Q331 461 367 444T428 397T466 325T479 231Q479 186 466 143T425 67T358 12T263 -9ZM259 84Q308 84 341 120T374 227Q374 295 343 333T260 372Q148 372 148 227Q148 200 154 174T175 128T209 96T259 84Z" />
<glyph unicode="7" glyph-name="seven" horiz-adv-x="459" d="M163 -4Q142 -4 129 4T115 30Q115 37 117 43T121 55L329 621H54Q34 621 25 634T15 666Q15 685 24 698T52 712H397Q405 712 412 707T426 694T436 677T440 659Q440 646 432 625L214 23Q208 7 197 2T163 -4Z" />
<glyph unicode="8" glyph-name="eight" horiz-adv-x="540" d="M270 -9Q217 -9 176 9T107 57T65 128T50 212Q50 274 79 324T159 396Q126 413 103 451T79 545Q79 582 93 614T133 670T194 707T270 721Q311 721 346 708T407 671T447 615T462 545Q462 490 438 452T381
396Q434 373 462 324T490 212Q490 168 476 128T433 58T364 9T270 -9ZM270 435Q317 435 340 464T363 535Q363 576 338 604T270 632Q228 632 203 604T178 537Q178 494 200 465T270 435ZM270 84Q298 84 320 96T356 127T377 171T385 221Q385 247 378 271T356 313T320
342T270 353Q242 353 221 342T185 313T163 271T155 221Q155 196 162 172T184 128T219 96T270 84Z" />
<glyph unicode="9" glyph-name="nine" horiz-adv-x="527" d="M263 721Q322 721 363 700T431 644T470 567T483 482Q483 435 471 379T430 262T355 135T241 6Q228 -7 211 -7Q202 -7 193 -3T175 9T162 25T157 43Q157 51 160 58T171 73Q208 107 253 155T337 278Q316
264 291 258T242 251Q195 251 159 268T98 315T60 387T47 481Q47 526 60 569T101 645T168 700T263 721ZM268 628Q218 628 185 592T152 485Q152 417 183 379T266 340Q320 340 349 376T378 485Q378 512 372 538T352 584T317 616T268 628Z" />
<glyph unicode=":" glyph-name="colon" horiz-adv-x="251" d="M63 374Q63 400 81 418T126 437Q151 437 169 419T188 374Q188 348 170 330T126 312Q100 312 82 330T63 374ZM63 53Q63 79 81 97T126 116Q151 116 169 98T188 53Q188 27 170 9T126 -9Q100 -9 82 9T63 53Z" />
<glyph unicode=";" glyph-name="semicolon" horiz-adv-x="251" d="M63 374Q63 400 81 418T126 437Q151 437 169 419T188 374Q188 348 170 330T126 312Q100 312 82 330T63 374ZM89 74Q97 88 107 97T134 107Q157 107 172 94T187 61Q187 50 183 40T173 19L110 -96Q101
-112 91 -123T65 -134Q41 -134 26 -119T10 -87Q10 -71 20 -54L89 74Z" />
<glyph unicode="&lt;" glyph-name="less" horiz-adv-x="600" d="M32 259Q32 271 37 280T59 299L490 518Q496 521 504 524T520 527Q536 527 544 517T552 490Q552 473 547 463T525 445L158 259L522 74Q542 64 547 55T552 28Q552 -9 520 -9Q512 -9 503 -6T485 2L59
219Q42 227 37 237T32 259Z" />
<glyph unicode="=" glyph-name="equal" horiz-adv-x="600" d="M525 412Q543 412 552 400T561 369Q561 352 552 339T525 326H75Q58 326 49 339T40 369Q40 387 49 399T75 412H525ZM525 199Q543 199 552 186T561 156Q561 138 552 126T525 113H75Q58 113 49 125T40
156Q40 173 49 186T75 199H525Z" />
<glyph unicode="&gt;" glyph-name="greater" horiz-adv-x="600" d="M568 259Q568 247 563 237T541 219L115 2Q106 -3 97 -6T80 -9Q48 -9 48 28Q48 45 53 54T78 74L442 259L75 445Q58 453 53 463T48 490Q48 506 56 516T80 527Q88 527 95 524T110 518L541 299Q558
290 563 281T568 259Z" />
<glyph unicode="?" glyph-name="question" horiz-adv-x="461" d="M169 363Q169 382 179 396T218 415Q275 426 305 453T335 524Q335 571 308 600T234 630Q194 630 169 613T121 565Q102 537 79 537Q61 537 46 552T30 584Q30 599 38 614T60 645Q86 678 130 699T235
721Q279 721 315 707T377 666T417 605T432 527Q432 485 419 453T384 397T331 359T266 336V249Q266 229 252 215T218 200Q198 200 184 214T169 249V363ZM155 53Q155 79 173 97T218 116Q243 116 261 98T280 53Q280 27 262 9T218 -9Q192 -9 174 9T155 53Z" />
<glyph unicode="@" glyph-name="at" horiz-adv-x="888" d="M322 202Q322 103 400 103Q432 103 458 124T504 176T535 244T546 312Q546 345 527 367T470 390Q437 390 410 372T363 326T333 265T322 202ZM455 -172Q368 -172 292 -140T158 -51T67 82T34 247Q34 333
67 408T156 540T289 628T453 661Q539 661 612 634T739 559T823 442T854 289Q854 220 829 169T766 83T683 31T598 14Q556 14 534 36T511 95Q492 65 457 41T373 17Q337 17 310 30T263 66T234 122T224 193Q224 247 241 297T290 387T364 451T457 475Q499 475 530 457T580
396L593 431Q599 448 610 453T636 459Q653 459 664 450T676 424Q676 420 675 413T670 395L601 175Q597 164 594 151T591 127Q591 114 597 103T623 91Q644 91 671 104T721 141T760 200T776 279Q776 352 752 408T684 503T581 561T452 581Q383 581 322 555T215 483T143
376T116 244Q116 172 142 111T215 4T322 -66T454 -92Q512 -92 554 -83T626 -60T677 -31T714 -3Q723 5 730 12T750 19Q765 19 778 5T791 -23Q791 -30 789 -35T777 -49Q756 -68 727 -89T657 -129T567 -160T455 -172Z" />
<glyph unicode="A" glyph-name="A" horiz-adv-x="574" d="M420 172H154L109 23Q102 6 90 1T62 -4Q42 -4 26 5T10 34Q10 44 13 50L198 610Q208 641 215 662T232 695T254 713T287 718Q307 718 319 713T341 695T358 662T376 611L560 52Q563 46 563 34Q563 14 547
5T511 -4Q495 -4 483 1T465 24L420 172ZM182 263H392L287 605L182 263Z" />
<glyph unicode="B" glyph-name="B" horiz-adv-x="534" d="M69 662Q69 712 118 712H266Q324 712 362 696T424 655T457 597T467 531Q467 470 434 435T346 385Q421 373 460 327T499 207Q499 166 487 129T449 63T381 17T277 0H118Q69 0 69 49V662ZM168 415H242Q266
415 289 422T329 444T357 477T368 521Q368 566 340 594T249 623H168V415ZM168 89H266Q399 89 399 209Q399 266 364 298T265 330H168V89Z" />
<glyph unicode="C" glyph-name="C" horiz-adv-x="552" d="M324 -9Q249 -9 195 16T107 89T56 204T40 356Q40 438 57 505T110 621T204 695T340 721Q378 721 414 712T479 689T524 657T541 625Q541 617 538 608T528 591T514 578T497 573Q485 573 473 582T443 601T400
621T338 630Q276 630 239 605T181 541T154 453T147 356Q147 308 153 259T180 171T236 107T331 82Q369 82 396 89T442 106T475 122T499 130Q507 130 514 125T527 112T536 95T540 79Q540 63 522 47T473 19T403 -1T324 -9Z" />
<glyph unicode="D" glyph-name="D" horiz-adv-x="622" d="M69 662Q69 712 118 712H295Q380 712 435 681T523 599T568 484T581 354Q581 273 564 208T512 96T422 25T291 0H118Q69 0 69 49V662ZM168 91H280Q340 91 377 112T436 169T466 255T474 363Q474 412 466 458T437
541T380 599T285 621H168V91Z" />
<glyph unicode="E" glyph-name="E" horiz-adv-x="479" d="M67 662Q67 712 116 712H426Q445 712 454 699T464 666Q464 647 455 634T426 621H167V401H352Q371 401 380 388T390 356Q390 337 381 324T352 310H166V91H426Q445 91 454 78T464 46Q464 27 455 14T426 0H116Q67
0 67 49V662Z" />
<glyph unicode="F" glyph-name="F" horiz-adv-x="448" d="M67 662Q67 712 116 712H427Q446 712 455 699T464 666Q464 647 455 634T427 621H166V401H353Q372 401 381 388T390 356Q390 337 381 324T353 310H166V36Q166 15 152 6T116 -4Q96 -4 82 5T67 36V662Z" />
<glyph unicode="G" glyph-name="G" horiz-adv-x="633" d="M521 371Q563 371 576 354T589 303V241Q589 123 520 57T325 -9Q250 -9 196 16T108 89T57 204T40 356Q40 438 57 505T111 621T205 695T343 721Q382 721 418 712T483 689T529 657T547 625Q547 617 544 608T534
591T520 578T503 573Q491 573 479 582T448 601T404 621T341 630Q278 630 240 605T182 541T154 453T147 356Q147 308 153 259T180 171T236 107T331 82Q412 82 451 124T491 237V280H388Q365 280 355 293T345 326Q345 346 355 358T388 371H521Z" />
<glyph unicode="H" glyph-name="H" horiz-adv-x="640" d="M168 36Q168 15 154 6T118 -4Q98 -4 84 5T69 36V676Q69 696 83 706T118 716Q139 716 153 706T168 676V411H473V676Q473 696 487 706T522 716Q543 716 557 706T572 676V36Q572 15 558 6T522 -4Q502 -4 488
5T473 36V319H168V36Z" />
<glyph unicode="I" glyph-name="I" horiz-adv-x="339" d="M59 630Q38 630 29 642T19 671Q19 688 28 700T54 712H285Q302 712 311 700T320 671Q320 654 311 642T285 630H219V82H285Q302 82 311 70T320 41Q320 24 311 12T285 0H54Q37 0 28 12T19 41Q19 58 28 70T54
82H120V630H59Z" />
<glyph unicode="J" glyph-name="J" horiz-adv-x="413" d="M246 676Q246 696 260 706T296 716Q316 716 330 706T345 676V181Q345 140 336 105T307 45T253 5T169 -9Q139 -9 111 -1T62 20T27 48T14 76Q14 94 26 112T56 130Q67 130 77 123T100 107T127 91T166 84Q214
84 230 111T246 189V676Z" />
<glyph unicode="K" glyph-name="K" horiz-adv-x="532" d="M166 402L401 694Q409 705 419 710T450 716Q472 716 485 708T499 682Q499 672 493 663T482 646L257 370L508 69Q516 58 521 49T527 29Q527 13 514 5T479 -4Q459 -4 450 0T431 16L166 331V36Q166 15 151
6T116 -4Q96 -4 82 5T67 36V676Q67 696 81 706T116 716Q137 716 151 706T166 676V402Z" />
<glyph unicode="L" glyph-name="L" horiz-adv-x="443" d="M67 676Q67 696 81 706T116 716Q137 716 151 706T166 676V91H399Q418 91 427 78T436 46Q436 27 427 14T399 0H116Q67 0 67 49V676Z" />
<glyph unicode="M" glyph-name="M" horiz-adv-x="787" d="M665 638Q688 490 704 389T730 221T746 118T754 63T757 40T758 33Q758 14 743 5T706 -4Q686 -4 674 3T658 27L582 577L460 70Q450 29 435 15T393 0Q366 0 352 14T327 71L204 576L128 28Q126 10 113 3T80
-4Q60 -4 44 5T28 32Q28 35 28 39T30 49L121 638Q125 663 131 678T146 701T169 713T203 716Q236 716 252 700T281 636L393 144L506 636Q517 684 535 700T585 716Q604 716 617 713T640 702T655 678T665 638Z" />
<glyph unicode="N" glyph-name="N" horiz-adv-x="640" d="M69 678Q69 696 81 706T114 716Q134 716 146 709T166 689L473 199V676Q473 696 487 706T522 716Q543 716 557 706T572 676V37Q572 16 559 6T528 -4Q511 -4 499 1T478 19L168 511V36Q168 15 154 6T118 -4Q98
-4 84 5T69 36V678Z" />
<glyph unicode="O" glyph-name="O" horiz-adv-x="657" d="M328 -9Q251 -9 197 16T108 89T57 204T40 356Q40 436 56 503T107 618T196 694T328 721Q404 721 459 694T548 619T599 503T616 356Q616 272 600 205T549 90T459 17T328 -9ZM328 82Q386 82 421 107T476 171T502
259T509 356Q509 404 503 453T477 541T422 605T328 630Q270 630 235 605T180 541T154 453T147 356Q147 308 153 259T179 171T234 107T328 82Z" />
<glyph unicode="P" glyph-name="P" horiz-adv-x="513" d="M67 661Q67 712 116 712H279Q335 712 375 693T442 642T481 571T494 490Q494 443 481 401T441 328T370 278T267 259H166V36Q166 15 152 6T116 -4Q96 -4 82 5T67 36V661ZM166 348H261Q298 348 323 360T365
392T387 436T394 485Q394 511 387 536T365 580T324 611T261 623H166V348Z" />
<glyph unicode="Q" glyph-name="Q" horiz-adv-x="657" d="M316 -9Q244 -9 192 16T106 89T56 204T40 356Q40 436 56 503T107 618T196 694T328 721Q404 721 459 695T548 620T599 505T616 356Q616 260 591 187T516 66L564 -17Q574 -31 574 -44Q574 -61 559 -75T521
-90Q506 -90 497 -80T480 -55L442 16Q384 -9 316 -9ZM328 82Q368 82 398 94L349 178Q344 186 341 194T337 213Q337 231 354 245T389 259Q403 259 412 251T428 228L468 153Q493 192 501 245T509 356Q509 404 503 453T477 541T422 605T328 630Q270 630 235 605T180
541T154 453T147 356Q147 308 153 259T179 171T234 107T328 82Z" />
<glyph unicode="R" glyph-name="R" horiz-adv-x="545" d="M67 666Q67 688 79 700T112 712H279Q335 712 375 696T442 652T481 588T494 512Q494 438 462 385T357 312L519 63Q524 54 528 46T533 28Q533 12 520 3T484 -6Q463 -6 452 -1T432 19L256 301H166V34Q166
14 152 4T116 -6Q96 -6 82 4T67 34V666ZM166 390H261Q298 390 323 399T365 424T387 461T394 508Q394 532 387 553T365 589T324 614T261 623H166V390Z" />
<glyph unicode="S" glyph-name="S" horiz-adv-x="480" d="M222 -9Q184 -9 149 -1T86 20T42 48T25 78Q25 96 38 114T68 133Q79 133 92 125T123 108T165 90T224 82Q258 82 282 91T320 115T341 149T348 190Q348 214 341 233T318 270T275 302T210 334Q176 348 145
365T90 407T52 464T38 542Q38 585 54 618T99 674T167 709T253 721Q282 721 313 715T371 698T414 673T431 642Q431 634 428 625T419 607T405 594T387 588Q376 588 365 594T339 609T302 623T250 630Q202 630 173 606T144 545Q144 520 152 502T177 470T217 443T272
416Q313 397 347 378T405 333T442 276T455 198Q455 152 440 114T396 49T324 6T222 -9Z" />
<glyph unicode="T" glyph-name="T" horiz-adv-x="455" d="M40 621Q21 621 12 634T2 666Q2 685 11 698T40 712H416Q435 712 444 699T453 666Q453 647 444 634T416 621H277V34Q277 14 263 4T228 -6Q207 -6 193 4T178 34V621H40Z" />
<glyph unicode="U" glyph-name="U" horiz-adv-x="624" d="M60 676Q60 696 74 706T110 716Q130 716 144 706T159 676V263Q159 172 200 129T312 86Q383 86 424 129T465 263V676Q465 696 479 706T514 716Q535 716 549 706T564 676V257Q564 193 547 144T496 61T417
10T312 -7Q254 -7 208 10T128 60T78 143T60 257V676Z" />
<glyph unicode="V" glyph-name="V" horiz-adv-x="550" d="M274 127L452 687Q459 704 471 710T499 716Q519 716 535 708T552 682Q552 677 551 672T548 662L362 102Q351 71 344 51T327 18T306 1T275 -4Q256 -4 244 1T222 18T206 51T188 102L2 659Q0 664 -1 669T-3
681Q-3 699 14 707T51 716Q67 716 79 710T97 687L274 127Z" />
<glyph unicode="W" glyph-name="W" horiz-adv-x="764" d="M9 621Q6 637 4 647T2 662T1 671T0 677Q0 698 15 707T51 716Q91 716 99 684L214 144L315 616Q323 657 339 672T382 687Q410 687 425 672T449 615L549 142L665 684Q668 702 680 709T712 716Q733 716 748
707T764 678Q764 675 764 671T762 661L631 77Q625 53 619 37T604 12T583 0T554 -4Q535 -4 523 -1T501 12T486 37T474 77L381 516L289 77Q283 52 277 37T262 12T241 0T209 -4Q192 -4 180 -1T159 12T144 36T132 77L9 621Z" />
<glyph unicode="X" glyph-name="X" horiz-adv-x="529" d="M265 455L410 684Q421 701 433 708T469 716Q492 716 505 708T518 682Q518 672 512 661T500 640L322 366L505 80Q515 64 521 52T527 30Q527 14 514 5T479 -4Q455 -4 445 3T423 28L260 282L106 27Q95 10
85 3T50 -4Q28 -4 15 5T2 30Q2 40 8 51T25 80L203 371L33 638Q24 652 18 662T12 682Q12 699 25 707T61 716Q84 716 96 709T119 684L265 455Z" />
<glyph unicode="Y" glyph-name="Y" horiz-adv-x="510" d="M206 274L13 639Q8 648 3 659T-2 682Q-2 699 12 707T50 716Q73 716 82 709T100 686L255 374L410 686Q418 701 427 708T461 716Q484 716 498 708T513 682Q513 672 508 660T498 639L305 274V43Q305 17 292
7T255 -4Q233 -4 220 6T206 43V274Z" />
<glyph unicode="Z" glyph-name="Z" horiz-adv-x="480" d="M62 0Q53 0 45 5T31 17T21 33T17 50Q17 62 22 72T34 94L331 621H65Q46 621 37 634T28 666Q28 686 37 699T65 712H409Q429 712 441 695T453 661Q453 651 448 640T437 621L138 91H426Q444 91 453 78T463
46Q463 27 454 14T426 0H62Z" />
<glyph unicode="[" glyph-name="bracketleft" horiz-adv-x="297" d="M239 -15Q256 -15 265 -27T275 -57Q275 -75 266 -87T239 -100H139Q90 -100 90 -51V711Q90 760 139 760H239Q256 760 265 748T275 717Q275 700 266 688T239 675H182V-15H239Z" />
<glyph unicode="\" glyph-name="backslash" horiz-adv-x="395" d="M349 -17Q351 -24 352 -32T354 -47Q354 -62 344 -71T314 -81Q294 -81 284 -74T269 -52L47 702Q45 707 43 717T41 734Q41 751 51 760T81 770Q101 770 111 763T126 741L349 -17Z" />
<glyph unicode="]" glyph-name="bracketright" horiz-adv-x="297" d="M115 -15V675H57Q40 675 31 687T22 717Q22 735 31 747T57 760H158Q207 760 207 711V-51Q207 -100 158 -100H57Q40 -100 31 -88T22 -57Q22 -40 31 -28T57 -15H115Z" />
<glyph unicode="^" glyph-name="asciicircum" horiz-adv-x="600" d="M258 690Q267 707 277 712T300 718Q312 718 322 713T342 690L536 340Q542 329 544 322T546 307Q546 293 536 286T508 278Q491 279 480 287T458 314L300 603L141 314Q131 295 120 287T92 278Q75
278 65 285T54 307Q54 315 56 322T64 340L258 690Z" />
<glyph unicode="_" glyph-name="underscore" horiz-adv-x="500" d="M0 -125Q-12 -125 -20 -119T-29 -100Q-29 -88 -21 -82T0 -75H500Q512 -75 520 -81T529 -100Q529 -112 521 -118T500 -125H0V-125Z" />
<glyph unicode="`" glyph-name="grave" horiz-adv-x="209" d="M187 686Q201 681 208 670T216 644Q216 626 204 614T174 602Q162 602 154 606L1 668Q-26 679 -26 707Q-26 725 -13 737T19 750Q27 750 35 748L187 686Z" />
<glyph unicode="a" glyph-name="a" horiz-adv-x="516" d="M38 156Q38 198 55 228T100 277T164 306T238 315Q279 315 309 312T364 303V321Q364 393 333 424T244 455Q213 455 193 450T158 438T133 426T111 420Q95 420 84 436T72 469Q72 484 85 497T122 521T177 537T244
543Q358 543 408 486T459 306V35Q459 15 445 6T410 -4Q390 -4 378 5T365 35V74Q339 29 300 11T206 -7Q174 -7 144 1T91 29T53 80T38 156ZM140 158Q140 117 162 97T226 77Q253 77 277 88T321 119T351 166T362 226Q340 234 313 237T256 240Q200 240 170 217T140 158Z"
/>
<glyph unicode="b" glyph-name="b" horiz-adv-x="567" d="M522 268Q522 207 509 157T468 70T398 13T299 -7Q253 -7 219 11T162 64V35Q162 15 150 6T117 -4Q97 -4 83 5T68 35V730Q68 750 82 760T117 770Q137 770 151 760T165 730V448Q183 490 217 516T313 543Q367
543 406 521T471 462T509 374T522 268ZM421 269Q421 303 415 336T393 395T354 437T293 453Q257 453 233 437T193 395T172 336T165 269Q165 235 171 202T193 142T232 100T293 83Q329 83 353 99T393 142T414 201T421 269Z" />
<glyph unicode="c" glyph-name="c" horiz-adv-x="455" d="M44 268Q44 324 58 374T101 461T174 521T280 543Q310 543 337 538T385 523T417 503T429 479Q429 459 417 443T389 427Q380 427 373 431T354 440T325 449T280 453Q242 453 216 437T175 395T153 335T146
268Q146 234 152 201T174 142T213 99T274 83Q300 83 317 87T347 96T369 105T389 109Q404 109 416 94T429 60Q429 44 413 31Q395 16 356 5T271 -7Q214 -7 172 13T101 69T58 156T44 268Z" />
<glyph unicode="d" glyph-name="d" horiz-adv-x="567" d="M45 268Q45 324 58 374T98 461T167 521T266 543Q311 543 345 527T402 479V697Q402 717 416 726T451 736Q471 736 485 727T499 697V35Q499 15 485 6T450 -4Q430 -4 418 5T405 35V85Q388 44 353 19T255 -7Q202
-7 163 13T97 69T58 156T45 268ZM147 269Q147 235 153 202T175 142T214 100T273 83Q308 83 332 99T372 142T395 201T402 269Q402 303 396 336T374 395T335 437T274 453Q238 453 214 437T175 395T154 336T147 269Z" />
<glyph unicode="e" glyph-name="e" horiz-adv-x="533" d="M44 268Q44 324 58 374T100 461T171 521T272 543Q329 543 370 521T437 463T476 380T488 283Q488 260 478 245T445 230H148Q151 200 159 174T182 127T222 94T283 82Q314 82 335 86T372 95T399 105T419 109Q436
109 447 93T459 60Q459 40 433 27Q406 14 370 4T274 -7Q215 -7 172 13T101 69T58 155T44 268ZM387 304Q386 332 380 359T359 409T323 444T269 457Q239 457 217 444T179 408T157 359T148 304H387Z" />
<glyph unicode="f" glyph-name="f" horiz-adv-x="305" d="M3 490Q3 508 12 520T38 533H92V585Q92 681 129 725T234 770Q279 770 291 757T304 723Q304 704 294 693T257 682Q219 682 204 658T189 583V533H248Q270 533 277 520T284 490Q284 475 277 462T248 448H189V43Q189
17 176 7T140 -4Q118 -4 105 6T92 43V448H38Q21 448 12 460T3 490Z" />
<glyph unicode="g" glyph-name="g" horiz-adv-x="566" d="M44 268Q44 324 57 374T97 461T165 521T264 543Q309 543 346 525T404 469V501Q404 521 416 530T449 540Q469 540 483 531T498 501V37Q498 -29 479 -74T426 -147T349 -187T256 -199Q221 -199 186 -193T122
-176T75 -151T56 -120Q56 -100 69 -83T99 -66Q110 -66 123 -73T154 -88T197 -104T258 -111Q289 -111 315 -104T361 -80T390 -38T401 25V70Q378 38 344 17T260 -4Q204 -4 164 16T97 72T57 158T44 268ZM146 269Q146 235 152 202T173 142T211 100T269 83Q305 83 330
99T371 142T394 201T401 269Q401 303 395 336T373 395T334 437T274 453Q238 453 214 437T174 395T153 336T146 269Z" />
<glyph unicode="h" glyph-name="h" horiz-adv-x="545" d="M69 730Q69 750 83 760T117 770Q137 770 151 760T166 730V465Q191 504 225 523T315 543Q348 543 378 532T432 497T468 438T482 355V35Q482 15 468 6T433 -4Q413 -4 399 5T385 35V344Q385 395 359 426T284
457Q230 457 198 419T166 311V35Q166 15 152 6T117 -4Q97 -4 83 5T69 35V730Z" />
<glyph unicode="i" glyph-name="i" horiz-adv-x="233" d="M56 673Q56 699 74 716T116 734Q141 734 158 717T176 673Q176 648 159 631T116 614Q92 614 74 631T56 673ZM68 501Q68 521 82 530T117 540Q137 540 151 531T165 501V36Q165 16 151 6T117 -4Q96 -4 82 6T68
36V501Z" />
<glyph unicode="j" glyph-name="j" horiz-adv-x="233" d="M68 490Q68 519 81 529T117 540Q139 540 152 530T165 490V-13Q165 -107 127 -153T7 -199Q-20 -199 -34 -188T-49 -160Q-49 -140 -37 -124T-5 -108Q41 -108 54 -85T68 -10V490ZM57 673Q57 699 74 716T117
734Q142 734 159 717T177 673Q177 648 160 631T117 614Q92 614 75 631T57 673Z" />
<glyph unicode="k" glyph-name="k" horiz-adv-x="459" d="M68 730Q68 750 82 760T117 770Q137 770 151 760T165 730V331L335 519Q343 529 352 535T382 541Q404 541 417 533T431 508Q431 498 427 491T414 472L248 290L436 59Q447 45 447 28Q447 11 435 4T399 -4Q366
-4 352 15L165 246V35Q165 15 151 6T117 -4Q96 -4 82 5T68 35V730Z" />
<glyph unicode="l" glyph-name="l" horiz-adv-x="235" d="M69 730Q69 750 83 760T117 770Q137 770 151 760T166 730V34Q166 14 152 4T117 -6Q97 -6 83 4T69 34V730Z" />
<glyph unicode="m" glyph-name="m" horiz-adv-x="851" d="M68 501Q68 521 82 530T117 540Q137 540 149 531T162 501V456Q188 501 223 522T310 543Q357 543 396 521T456 449Q480 493 517 518T617 543Q653 543 684 532T739 497T775 438T788 355V37Q788 16 774 6T739
-4Q718 -4 705 6T691 37V344Q691 402 664 428T595 457Q544 458 510 420T476 311V36Q476 16 462 6T428 -4Q408 -4 394 6T379 36V344Q379 394 354 425T281 457Q227 457 196 418T165 311V36Q165 16 151 6T117 -4Q96 -4 82 5T68 35V501Z" />
<glyph unicode="n" glyph-name="n" horiz-adv-x="544" d="M68 501Q68 521 82 530T117 540Q137 540 149 531T162 501V456Q188 501 223 522T315 543Q348 543 378 532T431 497T467 438T481 355V35Q481 15 467 6T433 -4Q412 -4 398 5T384 35V344Q384 395 358 426T283
457Q229 457 197 419T165 311V35Q165 15 151 6T117 -4Q96 -4 82 5T68 35V501Z" />
<glyph unicode="o" glyph-name="o" horiz-adv-x="547" d="M44 268Q44 324 58 374T100 461T172 521T274 543Q333 543 376 521T447 462T489 374T503 268Q503 207 489 157T447 70T375 13T274 -7Q216 -7 173 13T101 69T58 156T44 268ZM146 269Q146 235 152 202T174
142T213 100T274 83Q310 83 334 99T373 142T394 201T401 269Q401 303 395 336T373 395T334 437T274 453Q238 453 214 437T174 395T153 336T146 269Z" />
<glyph unicode="p" glyph-name="p" horiz-adv-x="567" d="M522 268Q522 207 509 157T468 70T398 13T299 -7Q256 -7 221 10T165 60V-159Q165 -179 151 -189T117 -199Q97 -199 83 -189T68 -159V501Q68 521 82 530T117 540Q137 540 149 531T162 501V446Q181 490 216
516T315 543Q369 543 408 522T472 463T510 375T522 268ZM421 269Q421 303 415 336T393 395T354 437T293 453Q257 453 233 437T193 395T172 336T165 269Q165 235 171 202T193 142T232 100T293 83Q329 83 353 99T393 142T414 201T421 269Z" />
<glyph unicode="q" glyph-name="q" horiz-adv-x="566" d="M44 268Q44 324 57 374T97 461T167 521T267 543Q311 543 347 525T404 469V494Q404 520 415 530T449 540Q471 540 484 530T498 494V-152Q498 -178 485 -188T449 -199Q426 -199 414 -189T401 -152V81Q382
40 348 17T255 -7Q202 -7 162 13T96 69T57 156T44 268ZM147 269Q147 235 153 202T174 142T212 100T270 83Q306 83 331 99T372 142T395 201T402 269Q402 303 396 336T374 395T335 437T274 453Q238 453 214 437T174 395T153 336T147 269Z" />
<glyph unicode="r" glyph-name="r" horiz-adv-x="331" d="M68 501Q68 521 82 530T117 540Q137 540 149 531T162 501V456Q183 493 214 518T291 543Q314 543 324 529T335 494Q335 474 325 460T291 446Q265 446 242 439T202 415T175 374T165 311V35Q165 15 151 6T117
-4Q96 -4 82 5T68 35V501Z" />
<glyph unicode="s" glyph-name="s" horiz-adv-x="445" d="M218 -7Q196 -7 174 -4T130 4T92 16T62 31Q54 36 42 46T30 70Q30 89 43 105T75 121Q86 121 98 115T127 101T167 87T224 81Q269 81 289 100T309 149Q309 164 303 175T283 197T247 218T191 243Q114 275 80
310T45 402Q45 468 94 505T226 543Q256 543 286 537T341 521T380 497T396 469Q396 452 385 436T353 420Q342 420 331 425T305 437T272 449T225 455Q194 455 170 442T145 396Q145 378 162 361T233 320Q278 301 310 284T365 247T397 205T408 151Q408 113 394 84T355
34T294 4T218 -7Z" />
<glyph unicode="t" glyph-name="t" horiz-adv-x="324" d="M0 491Q0 508 9 521T35 534H89V618Q89 644 102 655T137 666Q160 666 173 655T186 618V534H281Q303 534 309 520T316 491Q316 476 310 462T281 448H186V183Q186 158 189 139T200 107T221 87T257 80Q280
80 290 69T301 40Q301 29 299 20T289 5T267 -4T230 -7Q188 -7 161 6T117 43T95 101T89 178V448H35Q18 448 9 461T0 491Z" />
<glyph unicode="u" glyph-name="u" horiz-adv-x="533" d="M60 501Q60 521 74 530T109 540Q129 540 143 531T157 501V202Q157 141 186 110T267 79Q319 79 347 110T376 202V501Q376 521 390 530T425 540Q445 540 459 531T473 501V182Q473 135 458 100T415 41T350
5T267 -7Q222 -7 185 5T119 41T76 100T60 182V501Z" />
<glyph unicode="v" glyph-name="v" horiz-adv-x="458" d="M20 480Q18 486 16 493T14 506Q14 523 28 531T63 540Q80 540 94 533T114 509L229 158L344 509Q349 527 363 533T394 540Q416 540 430 532T444 506Q444 499 442 492T438 480L275 26Q268 8 257 2T229 -4Q212
-4 201 1T183 26L20 480Z" />
<glyph unicode="w" glyph-name="w" horiz-adv-x="681" d="M26 471Q23 482 22 489T20 504Q20 540 71 540Q89 540 100 533T117 506L203 168L293 506Q298 525 309 532T340 540Q380 540 387 506L477 169L564 509Q569 526 581 533T610 540Q660 540 660 504Q660 496
659 490T654 472L525 27Q519 5 506 1T478 -4Q459 -4 449 2T433 27L340 363L248 29Q242 7 231 2T201 -4Q164 -4 156 25L26 471Z" />
<glyph unicode="x" glyph-name="x" horiz-adv-x="484" d="M406 -4Q391 -4 378 0T357 15L236 196L127 14Q120 4 107 0T78 -4Q58 -4 44 4T29 30Q29 43 39 57L184 272L45 474Q33 491 33 506Q33 523 46 531T83 540Q105 540 115 535T134 518L245 352L350 517Q358 529
369 534T401 540Q424 540 437 532T451 506Q451 492 438 475L297 274L444 60Q455 41 455 30Q455 13 442 5T406 -4Z" />
<glyph unicode="y" glyph-name="y" horiz-adv-x="458" d="M20 480Q18 486 16 493T14 506Q14 523 28 531T63 540Q80 540 94 534T114 509L229 158L344 509Q349 526 363 533T394 540Q416 540 430 532T444 506Q444 499 442 492T438 480L204 -171Q195 -199 152 -199Q132
-199 119 -190T105 -166Q105 -157 107 -149T113 -131L179 38L20 480Z" />
<glyph unicode="z" glyph-name="z" horiz-adv-x="456" d="M293 447H77Q59 447 50 460T41 491Q41 510 50 523T77 536H386Q403 536 413 520T424 489Q424 474 416 463L159 89H395Q413 89 422 76T431 45Q431 26 422 13T395 0H69Q52 0 40 16T27 48Q27 61 37 75L293 447Z" />
<glyph unicode="{" glyph-name="braceleft" horiz-adv-x="315" d="M210 -100Q159 -100 131 -73T102 15V180Q102 243 90 269T43 295Q29 295 21 305T13 328Q13 342 21 352T43 362Q78 362 90 388T102 477V633Q102 694 130 727T210 760H257Q275 760 284 748T293 717Q293
700 284 688T257 675H232Q209 675 202 659T194 614V462Q194 426 186 402T164 362T135 339T106 329V327Q119 325 134 318T162 296T185 256T194 195V48Q194 19 202 2T231 -15H257Q275 -15 284 -27T293 -57Q293 -75 284 -87T257 -100H210V-100Z" />
<glyph unicode="|" glyph-name="bar" horiz-adv-x="267" d="M92 735Q92 752 104 761T134 770Q151 770 163 762T175 736V-46Q175 -63 163 -72T134 -81Q117 -81 105 -73T92 -47V735Z" />
<glyph unicode="}" glyph-name="braceright" horiz-adv-x="315" d="M58 -100Q40 -100 31 -88T22 -57Q22 -40 31 -28T58 -15H84Q104 -15 112 2T121 48V195Q121 231 130 255T152 295T181 318T209 327V329Q195 331 180 338T152 361T130 401T121 462V614Q121 643 114
659T83 675H58Q40 675 31 687T22 717Q22 735 31 747T58 760H105Q156 760 184 727T213 633V477Q213 414 225 388T272 362Q286 362 293 352T301 328Q301 315 294 305T272 295Q237 295 225 269T213 180V15Q213 -46 185 -73T105 -100H58Z" />
<glyph unicode="~" glyph-name="asciitilde" horiz-adv-x="600" d="M95 187Q79 187 67 196T55 223Q55 241 65 262T93 301T135 331T188 343Q221 343 249 332T302 307T352 282T401 270Q425 270 438 281T461 305T480 330T505 341Q521 341 534 331T547 303Q547 285
538 264T510 226T467 196T411 184Q375 184 347 195T295 220T247 245T198 257Q175 257 162 246T139 222T120 198T95 187Z" />
</font>
</defs>
</svg>
